Лихорадка субботнего вечера / Лихорадка в субботний вечер / Горячка субботней ночи / Saturday Night Fever (Джон Бэдэм / John Badham) [1977, США, мелодрама, музыка, HDRip] AVO (Володарский) + Original Eng

DL-List and Torrent activity
Size:  2.1 GB   |    Registered:  2 years 9 months   |    Completed:  16 times
Seeders:  5  
 
   
 
 

erzsebet.org ®

Longevity:
2 years 9 months
Posts:
47596

[Quote] 

Лихорадка субботнего вечера / Saturday Night Fever
Страна: США
Жанр: мелодрама, музыка
Год выпуска: 1977
Продолжительность: 01:59:03
Перевод: Авторский (одноголосый закадровый) Леонида Володарского
Субтитры: нет
Оригинальная аудиодорожка: английский
Режиссер: Джон Бэдэм /John Badham/
В ролях: Джон Траволта /John Travolta/, Кэрен Линн Горни /Karen Lynn Gorney/, Барри Миллер /Barry Miller/, Донна Пескоу /Donna Pescow/, Брюс Орнстайн /Bruce Ornstein/, Пол Пэйп /Paul Pape/, Джозеф Кали /Joseph Cali/
Рецензия Михаила Иванова: Одна из самых кассовых американских картин. Именно после этого фильма Траволта ("оскарная" номинация) стал звездой. Он играет Тони Манеро, молодого парня из Бруклина. Ему скучно дома, скучно в скобяной лавке, где он работает. Его отдушина, свет в окошке, смысл жизни танцплощадка в местном дискоклубе. Этот эффектный и реалистичный фильм с великолепной музыкой "Би Джиз" породил во всем мире эпидемию диско-лихорадки.
Доп. информация: исходник от ZtaZ55RuS; кассету fuji-e180 c переводом Володарского оцифровал и синхронизировал karlll
~Сэмпл~
Качество видео: HDRip
Формат видео: AVI
Видео: 704x400 (1.76:1), 23.976 fps, XviD build 73 ~2138 kbps avg, 0.32 bit/pixel
Аудио 1: 48 kHz, AC3 Dolby Digital, 2/0 (L,R) ch, ~192 kbps - Володарский
Аудио 2: 48 kHz, AC3 Dolby Digital, 2/0 (L,R) ch, ~192 kbps - анг

MediaInfo

Формат : AVI
Формат/Информация : Audio Video Interleave
Профиль формата : OpenDML
Размер файла : 2,10 Гбайт
Продолжительность : 1 ч. 59 м.
Общий поток : 2529 Кбит/сек
Название фильма : Saturday Night Fever (1977)
Программа кодирования : VirtualDubMod 1.5.10.3 | www.virtualdub-fr.org || (build 2550/release)
Библиотека кодирования : VirtualDubMod build 2550/release
Правообладатель : Karl's Bayou Country
Видео
Идентификатор : 0
Формат : MPEG-4 Visual
Профиль формата : Advanced [email protected]
Параметр BVOP формата : 2
Параметр QPel формата : Нет
Параметр GMC формата : Без точки перехода
Параметр матрицы формата : Выборочная
Идентификатор кодека : XVID
Идентификатор кодека/Подсказка : XviD
Продолжительность : 1 ч. 59 м.
Битрейт : 2127 Кбит/сек
Ширина : 704 пикселя
Высота : 400 пикселей
Соотношение сторон : 16:9
Частота кадров : 23,976 кадра/сек
Цветовое пространство : YUV
Субдискретизация насыщенности : 4:2:0
Битовая глубина : 8 бит
Тип развёртки : Прогрессивная
Метод сжатия : С потерями
Бит/(Пиксели*Кадры) : 0.315
Размер потока : 1,77 Гбайт (84%)
Библиотека кодирования : XviD 73
Аудио #1
Идентификатор : 1
Формат : AC-3
Формат/Информация : Audio Coding 3
Расширение режима : CM (complete main)
Параметр Endianness формата : Big
Идентификатор кодека : 2000
Продолжительность : 1 ч. 59 м.
Вид битрейта : Постоянный
Битрейт : 192 Кбит/сек
Каналы : 2 канала
Расположение каналов : Front: L R
Частота : 48,0 КГц
Битовая глубина : 16 бит
Метод сжатия : С потерями
Размер потока : 163 Мбайт (8%)
Выравнивание : Разделение по промежуткам
Продолжительность промежутка : 42 мс. (1,00 видеокадр)
Время предзагрузки промежутка : 500 мс.
Заголовок : Володарский
Аудио #2
Идентификатор : 2
Формат : AC-3
Формат/Информация : Audio Coding 3
Расширение режима : CM (complete main)
Параметр Endianness формата : Big
Идентификатор кодека : 2000
Продолжительность : 1 ч. 59 м.
Вид битрейта : Постоянный
Битрейт : 192 Кбит/сек
Каналы : 2 канала
Расположение каналов : Front: L R
Частота : 48,0 КГц
Битовая глубина : 16 бит
Метод сжатия : С потерями
Размер потока : 163 Мбайт (8%)
Выравнивание : Разделение по промежуткам
Продолжительность промежутка : 42 мс. (1,00 видеокадр)
Время предзагрузки промежутка : 500 мс.
Заголовок : english

Скриншоты

If your ratio falls below 0.3, you will not be able to download Torrents! More about the rating.

[erzsebet.pl].t281.torrent
Torrent: Registered   [ 2017-12-02 16:22 ]

Download .torrent

Download

11 KB

Status: checked
Completed: 16 times
Size: 2.1 GB
terms.php

#1

02-Dec-2017 16:21

[Profile]  [PM] 
Display posts:    

You cannot post new topics in this forum
You cannot reply to topics in this forum
You cannot edit your posts in this forum
You cannot delete your posts in this forum
You cannot vote in polls in this forum
You cannot attach files in this forum
You can download files in this forum
User agreement
For copyright holders
Advertise on this site

Скачайте на халяву через торрент на трекере erzsebet.pl

!ATTENTION!
The site does not give electronic versions of products, and is engaged only in a collecting and cataloguing of the references sent and published at a forum by our readers. If you are the legal owner of any submitted material and do not wish that the reference to it was in our catalogue, contact us and we shall immediately remove her. Files for an exchange on tracker are given by users of a site, and the administration does not bear the responsibility for their maintenance. The request to not fill in the files protected by copyrights, and also files of the illegal maintenance!