Великий самозванец / The Great Impostor (Роберт Маллиган / Robert Mulligan) [1961, США, комедия, DVDRip] DVO ("Культура") + Original Eng

DL-List and Torrent activity
Size:  1.56 GB   |    Registered:  2 years 9 months   |    Completed:  16 times
Seeders:  17  
 
   
 
 

erzsebet.org ®

Longevity:
2 years 9 months
Posts:
47596

[Quote] 

Великий самозванец / The Great Impostor
Страна: США
Жанр: комедия
Год выпуска: 1961
Продолжительность: 1:47:44
Перевод: Профессиональный (двухголосый закадровый) "Культура"
Субтитры: нет
Оригинальная аудиодорожка: английский
Режиссер: Роберт Маллиган / Robert Mulligan
В ролях: Тони Кертис, Карл Молден, Эдмонд О’Брайен, Артур О’Коннелл, Гэри Меррил, Джоан Блэкман, Рэймонд Мэсси, Роберт Миддлтон, Жанетт Нолан, Сью Эни Лэнгдон
Описание: Получив самую высокую оценку на экзамене в школу офицеров, Фердинанд Демара не был принят из-за отсутствия диплома о среднем образовании. Ловкий мошенник с детства, он подделывает документы и начинает жить чужой жизнью.
Сэмпл: http://multi-up.com/1166162
Качество видео: DVDRip
Формат видео: AVI
Видео: XviD, 640x480 (4:3), 25 fps, ~1680 kbps
Аудио: AC3, 48 khz, 2 ch, 192 kbps - "СВ Дубль" по заказу ГТРК "Культура"
Аудио 2: AC3, 48 khz, 2 ch, 192 kbps - english (отдельным файлом)

MediaInfo

Общее
Полное имя : D:\Torrents\Great Impostor [DVDRip 1961]\The Great Impostor [DVDRip 1961].avi
Формат : AVI
Формат/Информация : Audio Video Interleave
Размер файла : 1,41 Гбайт
Продолжительность : 1 ч. 47 м.
Общий поток : 1879 Кбит/сек
Программа кодирования : VirtualDubMod 1.5.10.2 (build 2540/release)
Библиотека кодирования : VirtualDubMod build 2540/release
Видео
Идентификатор : 0
Формат : MPEG-4 Visual
Профиль формата : Advanced [email protected]
Параметр BVOP формата : 2
Параметр QPel формата : Нет
Параметр GMC формата : Без точки перехода
Параметр матрицы формата : Default (H.263)
Идентификатор кодека : XVID
Идентификатор кодека/Подсказка : XviD
Продолжительность : 1 ч. 47 м.
Битрейт : 1678 Кбит/сек
Ширина : 640 пикселей
Высота : 480 пикселей
Соотношение сторон : 4:3
Частота кадров : 25,000 кадров/сек
Цветовое пространство : YUV
Субдискретизация насыщенности : 4:2:0
Битовая глубина : 8 бит
Тип развёртки : Прогрессивная
Метод сжатия : С потерями
Бит/(Пиксели*Кадры) : 0.218
Размер потока : 1,26 Гбайт (89%)
Библиотека кодирования : XviD 1.1.2 (UTC 2006-11-01)
Аудио
Идентификатор : 1
Формат : AC-3
Формат/Информация : Audio Coding 3
Параметр Endianness формата : Big
Идентификатор кодека : 2000
Продолжительность : 1 ч. 47 м.
Вид битрейта : Постоянный
Битрейт : 192 Кбит/сек
Каналы : 2 канала
Расположение каналов : Front: L R
Частота : 48,0 КГц
Частота кадров : 31,250 кадров/сек (1536 spf)
Битовая глубина : 16 бит
Метод сжатия : С потерями
Размер потока : 148 Мбайт (10%)
Выравнивание : Разделение по промежуткам
Продолжительность промежутка : 40 мс. (1,00 видеокадр)
Время предзагрузки промежутка : 500 мс.
ServiceKind/String : Complete Main

Скриншот c названием фильма

Скриншоты

If your ratio falls below 0.3, you will not be able to download Torrents! More about the rating.

[erzsebet.pl].t288.torrent
Torrent: Registered   [ 2017-12-02 16:22 ]

Download .torrent

Download

16 KB

Status: checked
Completed: 16 times
Size: 1.56 GB
terms.php

#1

02-Dec-2017 16:21

[Profile]  [PM] 
Display posts:    

You cannot post new topics in this forum
You cannot reply to topics in this forum
You cannot edit your posts in this forum
You cannot delete your posts in this forum
You cannot vote in polls in this forum
You cannot attach files in this forum
You can download files in this forum
User agreement
For copyright holders
Advertise on this site

Скачайте на халяву через торрент на трекере erzsebet.pl

!ATTENTION!
The site does not give electronic versions of products, and is engaged only in a collecting and cataloguing of the references sent and published at a forum by our readers. If you are the legal owner of any submitted material and do not wish that the reference to it was in our catalogue, contact us and we shall immediately remove her. Files for an exchange on tracker are given by users of a site, and the administration does not bear the responsibility for their maintenance. The request to not fill in the files protected by copyrights, and also files of the illegal maintenance!