Авария / Crush (Элисон Маклин / Alison Maclean) [1992, Новая Зеландия, психологическая драма, DVDRip] VO (allecs2010)

Reply to topic
DL-List and Torrent activity
Size:  1.37 GB   |    Registered:  3 years 3 months   |    Completed:  16 times

Seeder not seen: Never

 
   
 
 
Author Message

erzsebet.org ®

Longevity: 3 years 2 months

Posts: 47596

Post 02-Dec-2017 15:58

[Quote]

Авария / Crush
Страна: Новая Зеландия
Жанр: психологическая драма
Год выпуска: 1992
Продолжительность: 01:32:16
-
Перевод: Одноголосый закадровый allecs2010 по субтитрам Verrucka
Субтитры: нет
-
Режиссер: Элисон Маклин / Alison Maclean
В ролях: Марша Гей Харден, Дона Рис, Кэйтлин Боссли, Уильям Заппа, Пит Смит, Джон Брейзиер, Джеффри Саузерн, Ширли Уилсон
-
Описание: Лейн и Кристина спешат на интервью с романистом Колином Айзманом. По пути их машина переворачивается, вследствие тяжелой аварии Кристина попадает в больницу, а Лейн, отделавшись легким испугом, как ни в чем не бывало отправляется на встречу с Колином.
-
Доп. информация: Видео http://erzsebet.org/forum/viewtopic.php?t=5474885
-
Сэмпл: http://sendfile.su/1381288
-
Качество видео: DVDRip
Формат видео: AVI
Видео: 720x400 (1.80:1), 25 fps, XviD 1.2 beta 1 (build 43) ~1889 kbps avg, 0.26 bit/pixel
Аудио: 48 kHz, MPEG Layer 3, 2 ch, ~224.00 kbps avg

MediaInfo

General
Complete name : C:\Users\ALEX\Desktop\Фильмы\Crush.1992.RUS.DVDRip.XviD.MPEG Audio.avi
Format : AVI
Format/Info : Audio Video Interleave
File size : 1.37 GiB
Duration : 1 h 32 min
Overall bit rate : 2 123 kb/s
Writing application : VirtualDubMod 1.5.10.2 (build 2542/release)
Writing library : VirtualDubMod build 2542/release
Video
ID : 0
Format : MPEG-4 Visual
Format profile : Advanced [email protected]
Format settings : BVOP1
Format settings, BVOP : 1
Format settings, QPel : No
Format settings, GMC : No warppoints
Format settings, Matrix : Default (H.263)
Codec ID : XVID
Codec ID/Hint : XviD
Duration : 1 h 32 min
Bit rate : 1 889 kb/s
Width : 720 pixels
Height : 400 pixels
Display aspect ratio : 16:9
Frame rate : 25.000 FPS
Color space : YUV
Chroma subsampling : 4:2:0
Bit depth : 8 bits
Scan type : Progressive
Compression mode : Lossy
Bits/(Pixel*Frame) : 0.262
Stream size : 1.22 GiB (89%)
Writing library : XviD 1.2.0SMP (UTC 2006-01-08)
Audio
ID : 1
Format : MPEG Audio
Format version : Version 1
Format profile : Layer 3
Codec ID : 55
Codec ID/Hint : MP3
Duration : 1 h 32 min
Bit rate mode : Constant
Bit rate : 224 kb/s
Channel(s) : 2 channels
Sampling rate : 48.0 kHz
Compression mode : Lossy
Stream size : 148 MiB (11%)
Alignment : Aligned on interleaves
Interleave, duration : 40 ms (1.00 video frame)
Interleave, preload duratio : 504 ms

Скриншоты

[erzsebet.pl].t29.torrent
Torrent: Registered [ 2017-12-02 15:58 ] · 34469D62880E636F827994FB8CAF10AF1A984795

Download .torrent

Download

14 KB

Status: checked
Completed: 16 times
Size: 1.37 GB
terms.php
[Profile] [PM]
Display posts:    
Reply to topic

Current time is: 07-Mar 20:55

All times are UTC ± 0



You cannot post new topics in this forum
You cannot reply to topics in this forum
You cannot edit your posts in this forum
You cannot delete your posts in this forum
You cannot vote in polls in this forum
You cannot attach files in this forum
You can download files in this forum