Дэви Крокетт. Индейский скаут / Davy Crockett, Indian Scout (Лью Лэндерс / Lew Landers) [1950, США, приключения, вестерн, DVDRip] VO (Nastia) + Sub Rus (Виталий Логачев, Антон Каптелов) + Original Eng

Reply to topic
DL-List and Torrent activity
Size:  1.36 GB   |    Registered:  3 years 3 months   |    Completed:  16 times

Seeder not seen: 3 years 3 months

 
   
 
 
Author Message

erzsebet.org ®

Longevity: 3 years 2 months

Posts: 47596

Post 02-Dec-2017 16:21

[Quote]

Дэви Крокетт. Индейский скаут / Davy Crockett, Indian Scout

Слоган: «TOUGH, FEARLESS FIGHTER OF THE FRONTIER!»
Страна: США
Студия: Edward Small Productions
Жанр: приключения, вестерн
Год выпуска: 1950
Продолжительность: 01:11:26
Перевод: Одноголосый закадровый - Nastia
Субтитры: русские(Виталий Логачев, Антон Каптелов)
Оригинальная аудиодорожка: английский
Режиссер: Лью Лэндерс / Lew Landers
В ролях: Джордж Монтгомери, Эллен Дрю, Филип Рид, Ной Бири мл., Пол Гилфойл, Эддисон Ричардс, Роберт Бэррат, Эрик Рольф, Билли Уилкерсон, Джон Хэмилтон ...
Описание: Мексика, 1848 год. На караван повозок с армейским эскортом идущий через индейские земли совершает нападение отряд воинственных индейцев. Чудом отбившись переселенцы понимают, что в их ряды затесался предатель. Разоблачением шпиона занимается проводник каравана, полный тёзка своего известного дяди Дэви Крокетт и его друг, индеец-скаут Красный Ястреб.
Доп. информация: Рип сделан из этого DVD5-- --Фильм переведен и озвучен специально для: 7букв Вестерн / группа Джесси Джеймса,
При участии ВК—группы Душевное кино.

Отдельная благодарность Alassea за предоставленную русскую звуковую дорожку и субтитры.
Перевод: Виталий Логачев, Антон Каптелов.
Закадровый текст: Nastia.--Davy Crockett, Indian Scout_(1950)_DVDRip_Sample_.avi--Качество видео: DVDRip
Формат видео: AVI
Видео: 640x480 (1.33:1), 23.976 fps, XviD build 73 ~2335 kbps avg, 0.32 bit/pixel
Аудио 1: 48 kHz, AC3 Dolby Digital, 2/0 (L,R) ch, ~192 kbps, Русский
Аудио 2: 48 kHz, AC3 Dolby Digital, 2/0 (L,R) ch, ~192 kbps, Английский
Формат субтитров: softsub (SRT)

AviInfo

File: Davy Crockett, Indian Scout_(1950)_DVDRip_.avi
Title: Davy Crockett, Indian Scout (1950)
Author: Lew Landers
Copyleft: Ripped_by_rjhlb777
Genre: Adventure, Western
Category: Movie
Comment: VO (Nastia) + Original ENG
FileSize: 1397.48 Mb ( 1 465 364 480 bytes )
Play length: 01:11:26.536 (102774 frames)
Subtitles: RUS_(Vitaliy Logachev, Anton Kaptelov)_ (SubRip format)
Video: 640x480 (1.33:1), 23.976 fps, XviD build 73 ~2335 kbps avg, 0.32 bit/pixel
Audio #1: 48 kHz, AC3 Dolby Digital, 2/0 (L,R) ch, ~192 kbps
Audio #2: 48 kHz, AC3 Dolby Digital, 2/0 (L,R) ch, ~192 kbps

MediaInfo

General
Complete name : I:\111\z_D_Disk\Davy Crockett, Indian Scout_(1950)_DVDRip_\Davy Crockett, Indian Scout_(1950)_DVDRip_.avi
Format : AVI
Format/Info : Audio Video Interleave
File size : 1.36 GiB
Duration : 1 h 11 min
Overall bit rate : 2 735 kb/s
Movie name : Davy Crockett, Indian Scout (1950)
Director : Lew Landers
Genre : Adventure, Western
Writing application : VirtualDubMod 1.5.10.3 | www.virtualdub-fr.org || (build 2550/release)
Original source form/Name : Movie
Copyright : Ripped_by_rjhlb777
Comment : VO (Nastia) + Original ENG
Video
ID : 0
Format : MPEG-4 Visual
Format profile : Advanced [email protected]
Format settings, BVOP : 2
Format settings, QPel : No
Format settings, GMC : No warppoints
Format settings, Matrix : Custom
Codec ID : XVID
Codec ID/Hint : XviD
Duration : 1 h 11 min
Bit rate : 2 337 kb/s
Width : 640 pixels
Height : 480 pixels
Display aspect ratio : 4:3
Frame rate : 23.976 (24000/1001) FPS
Color space : YUV
Chroma subsampling : 4:2:0
Bit depth : 8 bits
Scan type : Progressive
Compression mode : Lossy
Bits/(Pixel*Frame) : 0.317
Stream size : 1.17 GiB (85%)
Writing library : XviD 73
Audio #1
ID : 1
Format : AC-3
Format/Info : Audio Coding 3
Mode extension : CM (complete main)
Format settings, Endianness : Big
Codec ID : 2000
Duration : 1 h 11 min
Bit rate mode : Constant
Bit rate : 192 kb/s
Channel(s) : 2 channels
Channel positions : Front: L R
Sampling rate : 48.0 kHz
Frame rate : 31.250 FPS (1536 spf)
Bit depth : 16 bits
Compression mode : Lossy
Stream size : 98.1 MiB (7%)
Alignment : Split accross interleaves
Interleave, duration : 42 ms (1.00 video frame)
Interleave, preload duratio : 500 ms
Audio #2
ID : 2
Format : AC-3
Format/Info : Audio Coding 3
Mode extension : CM (complete main)
Format settings, Endianness : Big
Codec ID : 2000
Duration : 1 h 11 min
Bit rate mode : Constant
Bit rate : 192 kb/s
Channel(s) : 2 channels
Channel positions : Front: L R
Sampling rate : 48.0 kHz
Frame rate : 31.250 FPS (1536 spf)
Bit depth : 16 bits
Compression mode : Lossy
Stream size : 98.1 MiB (7%)
Alignment : Split accross interleaves
Interleave, duration : 42 ms (1.00 video frame)
Interleave, preload duratio : 500 ms
[erzsebet.pl].t295.torrent
Torrent: Registered [ 2017-12-02 16:22 ] · 94C7045472A3155B2CCFE96BDA75A3670A4D160B

Download .torrent

Download

14 KB

Status: checked
Completed: 16 times
Size: 1.36 GB
terms.php
[Profile] [PM]
Display posts:    
Reply to topic

Current time is: 08-Mar 04:04

All times are UTC ± 0



You cannot post new topics in this forum
You cannot reply to topics in this forum
You cannot edit your posts in this forum
You cannot delete your posts in this forum
You cannot vote in polls in this forum
You cannot attach files in this forum
You can download files in this forum