Звездные войны: Эпизод 4 – Новая надежда / Star Wars: Episode IV - A New Hope (Джордж Лукас / George Lucas) [1977, США, фантастика, фэнтези, приключения, DVB] [Локализованный видеоряд] Dub + MVO (РТР / Лазер) + Dub (ОРТ)

DL-List and Torrent activity
Size:  2.85 GB   |    Registered:  2 years 9 months   |    Completed:  16 times
Seeders:  8   Leechers:  1   Show peers in full details
 
   
 
 

erzsebet.org ®

Longevity:
2 years 9 months
Posts:
47596

[Quote] 

Звездные войны: Эпизод 4 – Новая надежда / Star Wars: Episode IV - A New Hope
Страна: США
Жанр: фантастика, фэнтези, приключения
Год выпуска: 1977
Продолжительность: 01:55:01
Перевод: Профессиональный (дублированный)
Перевод 2: Профессиональный (многоголосый закадровый) РТР / Лазер
Перевод 3: Профессиональный (дублированный) ОРТ
Субтитры: нет
Оригинальная аудиодорожка: нет
Режиссер: Джордж Лукас / George Lucas
В ролях: Марк Хэмилл, Харрисон Форд, Кэрри Фишер, Питер Кашинг, Алек Гиннесс, Энтони Дэниелс, Кенни Бейкер, Питер Мейхью, Фил Браун, Шила Фрейзер, Джек Пёрвис, Алекс МакКрайндл, Эдди Бирн и др.
Описание: Татуин. Планета-пустыня. Уже постаревший рыцарь Джедай Оби Ван Кеноби спасает молодого Люка Скайуокера, когда тот пытается отыскать пропавшего дроида. С этого момента Люк осознает свое истинное назначение: он один из рыцарей Джедай. В то время как гражданская война охватила галактику, а войска повстанцев ведут бои против сил злого Императора, к Люку и Оби Вану присоединяется отчаянный пилот-наемник Хан Соло, и в сопровождении двух дроидов, R2D2 и C-3PO, этот необычный отряд отправляется на поиски предводителя повстанцев — принцессы Леи. Героям предстоит отчаянная схватка с устрашающим Дартом Вейдером — правой рукой Императора и его секретным оружием — «Звездой Смерти».
Доп. информация: Большое спасибо xfiles за видео с локализованным видеорядом.
Большое спасибо RoxMarty за перевод РТР / Лазер.
Перевод ОРТ взят отсюда.
Сэмпл: http://sendfile.su/1357561
Качество видео: DVB
Формат видео: MPEG
Видео: MPEG-1/2 Video 720х576 25.000 fps 2 907 Kbps
Аудио: MPEG Audio layer 1/2 48.0 KHz, 2 ch, 192 Kbps
Аудио 2: Dolby AC3 48000Hz stereo 192kbps
Аудио 3: Dolby AC3 48000Hz stereo 192kbps

MediaInfo

General
Format : MPEG-PS
File size : 2.54 GiB
Duration : 1h 55mn
Overall bit rate mode : Variable
Overall bit rate : 3 162 Kbps
Video
ID : 224 (0xE0)
Format : MPEG Video
Format version : Version 2
Format profile : [email protected]
Format settings, BVOP : Yes
Format settings, Matrix : Custom
Format settings, GOP : Variable
Format settings, picture struc : Frame
Duration : 1h 55mn
Bit rate mode : Variable
Bit rate : 2 907 Kbps
Maximum bit rate : 15.0 Mbps
Width : 720 pixels
Height : 576 pixels
Display aspect ratio : 4:3
Frame rate : 25.000 fps
Standard : PAL
Color space : YUV
Chroma subsampling : 4:2:0
Bit depth : 8 bits
Scan type : Interlaced
Scan order : Top Field First
Compression mode : Lossy
Bits/(Pixel*Frame) : 0.280
Time code of first frame : 00:00:00:00
Time code source : Group of pictures header
GOP, Open/Closed : Open
GOP, Open/Closed of first fram : Closed
Stream size : 2.34 GiB (92%)
Audio
ID : 192 (0xC0)
Format : MPEG Audio
Format version : Version 1
Format profile : Layer 2
Duration : 1h 55mn
Bit rate mode : Constant
Bit rate : 192 Kbps
Channel(s) : 2 channels
Sampling rate : 48.0 KHz
Compression mode : Lossy
Stream size : 158 MiB (6%)

Скриншот c названием фильма

Скриншоты


If your ratio falls below 0.3, you will not be able to download Torrents! More about the rating.

[erzsebet.pl].t301.torrent
Torrent: Registered   [ 2017-12-02 16:22 ]

Download .torrent

Download

15 KB

Status: checked
Completed: 16 times
Size: 2.85 GB
terms.php

#1

02-Dec-2017 16:21

[Profile]  [PM] 
Display posts:    

You cannot post new topics in this forum
You cannot reply to topics in this forum
You cannot edit your posts in this forum
You cannot delete your posts in this forum
You cannot vote in polls in this forum
You cannot attach files in this forum
You can download files in this forum
User agreement
For copyright holders
Advertise on this site

Скачайте на халяву через торрент на трекере erzsebet.pl

!ATTENTION!
The site does not give electronic versions of products, and is engaged only in a collecting and cataloguing of the references sent and published at a forum by our readers. If you are the legal owner of any submitted material and do not wish that the reference to it was in our catalogue, contact us and we shall immediately remove her. Files for an exchange on tracker are given by users of a site, and the administration does not bear the responsibility for their maintenance. The request to not fill in the files protected by copyrights, and also files of the illegal maintenance!