Пэйтон Плейс / Peyton Place (Марк Робсон / Mark Robson) [1957, США, драма, мелодрама, BDRip] MVO (FOX International) + Original Eng + Sub (Rus, Ukr, Eng)

DL-List and Torrent activity
Size:  2.91 GB   |    Registered:  2 years 9 months   |    Completed:  16 times
Seeders:  2  
 
   
 
 

erzsebet.org ®

Longevity:
2 years 9 months
Posts:
47596

[Quote] 

-Пэйтон Плейс / Peyton Place«Now all of it is on the screen!» Страна: США
Студия: 20th Century Fox Film Corporation, Jerry Wald Productions
Жанр: драма, мелодрама
Год выпуска: 1957
Продолжительность: 02:37:00-Перевод: Профессиональный (многоголосый, закадровый) FOX International
Оригинальная аудиодорожка: английская
Субтитры: русские, украинские, английские
Режиссер: Марк Робсон / Mark Robson
В ролях: Лана Тернер, Ли Филипс, Ллойд Нолан, Артур Кеннеди, Расс Тэмблин, Терри Мур, Хоуп Лэнг, Дайан Варси, Дэвид Нельсон, Бэрри Коу
Описание: Несмотря на то, что Констанс, как и другие родители, населяющие этот образцово-порядочный городок, стремятся растить своих детей-подростков по всем правилам хорошего тона и воспитания,
скандалы только набирают оборот вокруг них: пьяный сторож избивает свою падчерицу, что влечет за собой убийство, суд и осознание того, что все в этом городе далеко не так хорошо, как кажется.-
Сэмпл: скачать-Релиз от -
Автор рипа: Elheym
Качество: BDRip (источник: dancingdemon [Peyton Place 1957 1080p Blu-ray AVC DTS-HD MA 5.1-watchHD])
Контейнер: AVI
Видео: 720x304 (2.37:1), 23.976 fps, XviD build 67 ~1878 kbps avg, 0.36 bit/pixel
Аудио #1: Русский: AC3, 4.0, 48 kHz, ~384 Кбит/с | Профессиональный (многоголосый, закадровый) FOX International |
Аудио #2: Английский: AC3, 5.1, 48 kHz, ~384 Кбит/с | Оригинал |
Субтитры: русские (полные, форсированные), украинские (полные, форсированные), английские (DVD, Blu-ray: полные, SDH, SDH цветные)
Размер: 2979.94 Mb (2/3 DVD)

MediaInfo

Полное имя : Pejton.Plejs.1957.DUAL.BDRip.XviD.AC3.-HQCLUB.avi
Формат : AVI
Формат/Информация : Audio Video Interleave
Профиль формата : OpenDML
Размер файла : 2.91 GiB
Продолжительность : 2 h 37 min
Общий поток : 2 654 kb/s
Название фильма : Пэйтон Плейс / Peyton Place (1957) BDRip
Автор рипа : Elheym
Программа кодирования : VirtualDubMod 1.5.10.2 (build 2540/release)
Авторское право : HQCLUB
Примечание : 25.08.2017
Video
Идентификатор : 0
Формат : MPEG-4 Visual
Профиль формата : Advanced [email protected]
Параметр BVOP формата : 1
Параметр QPel формата : No
Параметр GMC формата : No warppoints
Параметр матрицы формата : Custom
Идентификатор кодека : XVID
Идентификатор кодека/Подсказка : XviD
Продолжительность : 2 h 37 min
Битрейт : 1 870 kb/s
Ширина : 720 pixels
Высота : 304 pixels
Соотношение сторон : 2.35:1
Частота кадров : 23.976 (24000/1001) FPS
Цветовое пространство : YUV
Субдискретизация насыщенности : 4:2:0
Битовая глубина : 8 bits
Тип развёртки : Progressive
Метод сжатия : Lossy
Бит/(Пиксели*Кадры) : 0.356
Размер потока : 2.05 GiB (70%)
Библиотека кодирования : XviD 67
Audio #1
Идентификатор : 1
Формат : AC-3
Формат/Информация : Audio Coding 3
Параметр Endianness формата : Big
Идентификатор кодека : 2000
Продолжительность : 2 h 37 min
Вид битрейта : Constant
Битрейт : 384 kb/s
Каналы : 4 channels
Расположение каналов : Front: L C R, Back: C
Частота : 48.0 kHz
Частота кадров : 31.250 FPS (1536 SPF)
Битовая глубина : 16 bits
Метод сжатия : Lossy
Размер потока : 431 MiB (14%)
Выравнивание : Split accross interleaves
Продолжительность промежутка : 42 ms (1.00 video frame)
Время предзагрузки промежутка : 500 ms
ServiceKind/String : Complete Main
Audio #2
Идентификатор : 2
Формат : AC-3
Формат/Информация : Audio Coding 3
Параметр Endianness формата : Big
Идентификатор кодека : 2000
Продолжительность : 2 h 37 min
Вид битрейта : Constant
Битрейт : 384 kb/s
Каналы : 6 channels
Расположение каналов : Front: L C R, Side: L R, LFE
Частота : 48.0 kHz
Частота кадров : 31.250 FPS (1536 SPF)
Битовая глубина : 16 bits
Метод сжатия : Lossy
Размер потока : 431 MiB (14%)
Выравнивание : Split accross interleaves
Продолжительность промежутка : 42 ms (1.00 video frame)
Время предзагрузки промежутка : 500 ms
ServiceKind/String : Complete Main

Скриншоты

Цитата:
  • За дорожку с переводом FOX International спасибо BOLiK_Ltd.
  • За предоставленный DVD диск - источник русских, украинских и английских субтитров - большое спасибо gaurakos.
  • За корректировку текста украинских субтитров большое спасибо - yaroslaigor.

If your ratio falls below 0.3, you will not be able to download Torrents! More about the rating.

[erzsebet.pl].t303.torrent
Torrent: Registered   [ 2017-12-02 16:22 ]

Download .torrent

Download

16 KB

Status: checked
Completed: 16 times
Size: 2.91 GB
terms.php

#1

02-Dec-2017 16:21

[Profile]  [PM] 
Display posts:    

You cannot post new topics in this forum
You cannot reply to topics in this forum
You cannot edit your posts in this forum
You cannot delete your posts in this forum
You cannot vote in polls in this forum
You cannot attach files in this forum
You can download files in this forum
User agreement
For copyright holders
Advertise on this site

Скачайте на халяву через торрент на трекере erzsebet.pl

!ATTENTION!
The site does not give electronic versions of products, and is engaged only in a collecting and cataloguing of the references sent and published at a forum by our readers. If you are the legal owner of any submitted material and do not wish that the reference to it was in our catalogue, contact us and we shall immediately remove her. Files for an exchange on tracker are given by users of a site, and the administration does not bear the responsibility for their maintenance. The request to not fill in the files protected by copyrights, and also files of the illegal maintenance!