Я боюсь / Io ho paura (Дамиано Дамиани / Damiano Damiani) [1977, Италия, криминальная драма, триллер, VHSRip > DVD] [Советская прокатная копия] Dub (Горького)

DL-List and Torrent activity
Size:  3.96 GB   |    Registered:  2 years 9 months   |    Completed:  16 times
Seeders:  3  
 
   
 
 

erzsebet.org ®

Longevity:
2 years 9 months
Posts:
47596

[Quote] 

Я боюсь / Io ho paura [Советская прокатная копия]-Страна: Италия
Жанр: криминальная драма, триллер
Год выпуска: 1977
Продолжительность: 01:56:00-Перевод: Профессиональный (дублированный) - Киностудия им. М. Горького
Субтитры: нет-Режиссер: Дамиано Дамиани / Damiano Damiani
В ролях: Джан Мария Волонте, Эрланд Джозефсон, Марио Адорф, Анджелика Ипполито, Бруно Кораццари, Джо Сентьери, Джорджио Чериони, Лаура Троттер, Лаура Де Марчини...- | Релиз: -Описание: Полицейский патрульной службы Грациано после перестрелки с террористами из "Красных бригад" находит себе более безопасное, как ему казалось, место охранника у судьи Канчедда, занимающегося общеуголовными преступлениями, не связанными с политикой. Во время расследования убийства кладовщика портового склада Канчедда и Грациано выходят на след особо опасного преступника Каллегари, подозреваемого во взрыве пассажирского поезда. Наблюдение за Каллегари приводит их к неутешительным выводам - как за правыми, так и за левацкими актами террора стоят одни и те же люди из спецслужб и армии...-Семпл: http://sendfile.su/1356352-Тип релиза: VHSRip
Контейнер: DVD-Video
Видео: 704x576 (4:3), 25.000 fps, MPEG-2 Video, ~4441 Kbps, 0.438 bits/pixel
Аудио: Русский, 48.0 KHz, AC3, 2 ch, 256 Kbps

DVDInfo

Title: Я боюсь 1977 Dub Горького
Size: 3.96 Gb ( 4 147 352,00 KBytes ) - DVD-5
Enabled regions: 1, 2, 3, 4, 5, 6, 7, 8
VTS_01 :
Play Length: 01:56:00
Video: PAL 4:3 (704x576) VBR
Audio:
Russian, AC3, 2/0 (L,R) ch, 256 kbps, Delay 0 mSec

MediaInfo

General
Complete name : Я боюсь 1977 Dub Горького\VIDEO_TS\VTS_01_1.VOB
Format : MPEG-PS
File size : 1 024 MiB
Duration : 29 min 52 s
Overall bit rate mode : Variable
Overall bit rate : 4 792 kb/s
Video
ID : 224 (0xE0)
Format : MPEG Video
Format version : Version 2
Format profile : [email protected]
Format settings, BVOP : Yes
Format settings, Matrix : Default
Format settings, GOP : M=3, N=12
Format settings, picture structure : Frame
Duration : 29 min 52 s
Bit rate mode : Variable
Bit rate : 4 440 kb/s
Maximum bit rate : 9 579 kb/s
Width : 704 pixels
Height : 576 pixels
Display aspect ratio : 4:3
Frame rate : 25.000 FPS
Standard : PAL
Color space : YUV
Chroma subsampling : 4:2:0
Bit depth : 8 bits
Scan type : Interlaced
Scan order : Top Field First
Compression mode : Lossy
Bits/(Pixel*Frame) : 0.438
Time code of first frame : 00:00:00:00
Time code source : Group of pictures header
Stream size : 949 MiB (93%)
Color primaries : BT.601 PAL
Transfer characteristics : BT.470 System B, BT.470 System G
Matrix coefficients : BT.470 System B, BT.470 System G
Audio
ID : 189 (0xBD)-128 (0x80)
Format : AC-3
Format/Info : Audio Coding 3
Format settings, Endianness : Big
Muxing mode : DVD-Video
Duration : 29 min 52 s
Bit rate mode : Constant
Bit rate : 256 kb/s
Channel(s) : 2 channels
Channel positions : Front: L R
Sampling rate : 48.0 kHz
Frame rate : 31.250 FPS (1536 SPF)
Bit depth : 16 bits
Compression mode : Lossy
Stream size : 54.7 MiB (5%)
Service kind : Complete Main
Menu

If your ratio falls below 0.3, you will not be able to download Torrents! More about the rating.

[erzsebet.pl].t316.torrent
Torrent: Registered   [ 2017-12-02 16:22 ]

Download .torrent

Download

21 KB

Status: checked
Completed: 16 times
Size: 3.96 GB
terms.php

#1

02-Dec-2017 16:21

[Profile]  [PM] 
Display posts:    

You cannot post new topics in this forum
You cannot reply to topics in this forum
You cannot edit your posts in this forum
You cannot delete your posts in this forum
You cannot vote in polls in this forum
You cannot attach files in this forum
You can download files in this forum
User agreement
For copyright holders
Advertise on this site

Скачайте на халяву через торрент на трекере erzsebet.pl

!ATTENTION!
The site does not give electronic versions of products, and is engaged only in a collecting and cataloguing of the references sent and published at a forum by our readers. If you are the legal owner of any submitted material and do not wish that the reference to it was in our catalogue, contact us and we shall immediately remove her. Files for an exchange on tracker are given by users of a site, and the administration does not bear the responsibility for their maintenance. The request to not fill in the files protected by copyrights, and also files of the illegal maintenance!