Беовульф / Биоволк / Beowulf (Грэм Бейкер / Graham Baker) [1999, США, Великобритания, ужасы, фантастика, фэнтези, боевик, WEB-DLRip] DVO (СТС) + AVO (Дольский) + VO (Антонов)

Reply to topic
DL-List and Torrent activity
Size:  1.45 GB   |    Registered:  3 years 3 months   |    Completed:  16 times

Seeder not seen: Never

 
   
 
 
Author Message

erzsebet.org ®

Longevity: 3 years 2 months

Posts: 47596

Post 02-Dec-2017 15:58

[Quote]

Беовульф / Биоволк / Beowulf
Год выпуска: 1999
Страна: США, Великобритания
Жанр: ужасы, фантастика, фэнтези, боевик
Продолжительность: 01:33:22
Перевод: Профессиональный (двухголосый закадровый) - СТС
Перевод 2: Авторский (одноголосый закадровый) - Андрей Дольский
Перевод 3: Одноголосый закадровый - Николай Антонов (VHS)
Субтитры: нет
Режиссер: Грэм Бейкер / Graham Baker
В ролях: Кристофер Ламберт / Beowulf, Рона Митра / Kyra, Оливер Коттон / Hrothgar, Гёц Отто / Roland, Чарльз Робинсон / Weaponsmaster, Брент Джефферсон Лоу / Will, Роджер Сломан / Karl, Лайла Робертс / Grendel's Mother, Роберт Уиллокс / Chief Officer, Патрисия Веласкес / Pendra-Мировая премьера: 31 марта 1999-Описание: В далеком будущем, после мирового катаклизма, у человека слишком много врагов и слишком мало шансов, чтобы выжить. Единственное спасение для мирных жителей - создавать крепости. Но когда последняя крепость рухнет под натиском сил Тьмы, останется одна - единственная надежда на спасение - неуловимый и бесстрашный Беовульф. Наполовину человек, наполовину машина - только он сможет выйти на последний бой, когда настанет день и свершится битва, о начале которой узнают все...-Огромная благодарность:
igrok2012 - WEB-DL 1080p
Kino-profan - личная оцифровка авторских переводчиков со своих видеокассет.
JUSTKANT - нахождение в сети перевода с телеканала СТС и синхронизация переводов.-ПЕРВЫЙ И ВТОРОЙ ПЕРЕВОДЫ НА ТРЕКЕРЕ ПОЯВЛЯЮТСЯ ВПЕРВЫЕ.
На русский язык фильм озвучен по заказу СТС.
Текст читают Игорь Тарадайкин и Галина Исхакова.-
Рейтинг

MPAA: R - Лицам до 17 лет обязательно присутствие взрослого.-Качество видео: WEB-DLRip
Формат видео: AVI -> //Сэмпл//
Видео: XviD, 720x400 (16:9), 23.976 fps, 1629 kbps
Аудио:
1 - 48 khz, AC3 Dolby Digital, 2/0 (L,R) ch, ~192 kbps [СТС] TVRip
2 - 48 khz, AC3 Dolby Digital, 2/0 (L,R) ch, ~192 kbps [Дольский] VHSRip
3 - 48 khz, AC3 Dolby Digital, 2/0 (L,R) ch, ~192 kbps [Антонов] VHSRip

Информация о переводе Антонова

В моей раздаче перевод немного лучшего качества, чем у такого же перевода на трекере.
Все подробности в сэмпле.

MediaInfo

General
Complete name : D:\Беовульф (СТС + Дольский + Антонов).avi
Format : AVI
Format/Info : Audio Video Interleave
File size : 1.45 GiB
Duration : 1 h 33 min
Overall bit rate : 2 224 kb/s
Movie name : Беовульф / Биоволк / Beowulf (СТС + Дольский + Антонов)
Director : JUSTKANT
Writing application : VirtualDubMod 1.5.10.3 (build 2550/release)
Copyright : Качество звука: СТС - TVRip, Дольский и Антонов - VHSRip (Kino-profan)
Video
ID : 0
Format : MPEG-4 Visual
Format profile : Advanced [email protected]
Format settings : BVOP1 / Custom Matrix
Format settings, BVOP : 1
Format settings, QPel : No
Format settings, GMC : No warppoints
Format settings, Matrix : Custom
Codec ID : XVID
Codec ID/Hint : XviD
Duration : 1 h 33 min
Bit rate : 1 629 kb/s
Width : 720 pixels
Height : 400 pixels
Display aspect ratio : 16:9
Frame rate : 23.976 (24000/1001) FPS
Color space : YUV
Chroma subsampling : 4:2:0
Bit depth : 8 bits
Scan type : Progressive
Compression mode : Lossy
Bits/(Pixel*Frame) : 0.236
Stream size : 1.06 GiB (73%)
Writing library : XviD 73
Audio #1
ID : 1
Format : AC-3
Format/Info : Audio Coding 3
Codec ID : 2000
Duration : 1 h 33 min
Bit rate mode : Constant
Bit rate : 192 kb/s
Channel(s) : 2 channels
Channel positions : Front: L R
Sampling rate : 48.0 kHz
Frame rate : 31.250 FPS (1536 SPF)
Bit depth : 16 bits
Compression mode : Lossy
Stream size : 128 MiB (9%)
Alignment : Split accross interleaves
Interleave, duration : 42 ms (1.00 video frame)
Interleave, preload duratio : 500 ms
Title : СТС: Игорь Тарадайкин и Галина Исхакова
Service kind : Complete Main
Audio #2
ID : 2
Format : AC-3
Format/Info : Audio Coding 3
Codec ID : 2000
Duration : 1 h 33 min
Bit rate mode : Constant
Bit rate : 192 kb/s
Channel(s) : 2 channels
Channel positions : Front: L R
Sampling rate : 48.0 kHz
Frame rate : 31.250 FPS (1536 SPF)
Bit depth : 16 bits
Compression mode : Lossy
Stream size : 128 MiB (9%)
Alignment : Split accross interleaves
Interleave, duration : 42 ms (1.00 video frame)
Interleave, preload duratio : 500 ms
Title : Андрей Дольский (VHSRip)
Service kind : Complete Main
Audio #3
ID : 3
Format : AC-3
Format/Info : Audio Coding 3
Codec ID : 2000
Duration : 1 h 33 min
Bit rate mode : Constant
Bit rate : 192 kb/s
Channel(s) : 2 channels
Channel positions : Front: L R
Sampling rate : 48.0 kHz
Frame rate : 31.250 FPS (1536 SPF)
Bit depth : 16 bits
Compression mode : Lossy
Stream size : 128 MiB (9%)
Alignment : Split accross interleaves
Interleave, duration : 42 ms (1.00 video frame)
Interleave, preload duratio : 500 ms
Title : Николай Антонов (VHSRip)
Service kind : Complete Main

Скриншот c названием фильма

Скриншоты

[erzsebet.pl].t32.torrent
Torrent: Registered [ 2017-12-02 15:58 ] · BC6E697E57FB2C603CCA1BDFF2242BF3D72DF559

Download .torrent

Download

15 KB

Status: checked
Completed: 16 times
Size: 1.45 GB
terms.php
[Profile] [PM]
Display posts:    
Reply to topic

Current time is: 03-Mar 23:45

All times are UTC ± 0



You cannot post new topics in this forum
You cannot reply to topics in this forum
You cannot edit your posts in this forum
You cannot delete your posts in this forum
You cannot vote in polls in this forum
You cannot attach files in this forum
You can download files in this forum