Тюльпанная лихорадка / Tulip Fever (Джастин Чадвик / Justin Chadwick) [2017, Великобритания, США, драма, мелодрама, BDRip-AVC] Dub + Original (eng) + Sub (eng)

Reply to topic
DL-List and Torrent activity
Size:  2.07 GB   |    Registered:  3 years 3 months   |    Completed:  16 times

Seeder not seen: Never

 
   
 
 
Author Message

erzsebet.org ®

Longevity: 3 years 2 months

Posts: 47596

Post 02-Dec-2017 15:58

[Quote]

Тюльпанная лихорадка
Tulip Fever
Страна: Великобритания, США
Жанр: драма, мелодрама
Год выпуска: 2017
Продолжительность: 01:44:58
Перевод: Профессиональный (полное дублирование) [iTunes]
Субтитры: английские (полные, SDH, SDH цветные)
Оригинальная аудиодорожка: английский
Режиссер: Джастин Чадвик / Justin Chadwick
В ролях: Алисия Викандер, Дэйн ДеХаан, Кристоф Вальц, Зак Галифианакис, Джуди Денч, Холлидей Грейнджер, Джек О’Коннелл, Мэттью Моррисон, Кара Делевинь, Том Холландер, Кевин МакКидд, Дуглас Ходж
Описание:
Голландия, 17 век. Луковицы прекрасных цветов становятся причиной баснословного богатства или унизительной нищеты. Жители Амстердама готовы ради них на все: обман, подлог... и даже убийство. В атмосфере всеобщей тюльпаномании страсть бедного художника к молодой обольстительной жене стареющего богатого торговца может завести очень далеко.

Автор рипа: stalkerok
Сэмпл
Качество видео: BDRip-AVC [Tulip.Fever.2017.1080p.BluRay.REMUX.AVC.DTS-HD.MA.5.1-FGT]
Формат видео: MKV
Видео: 1990 Кбит/сек, 1152*482 (2,40:1), в 23,976 (24000/1001) кадра/сек, AVC
Аудио #1: русский, 384 Кбит/сек, 48 КГц, 5.1, AC3
Аудио #2: английский, 448 Кбит/сек, 48 КГц, 5.1, AC3
Навигация по главам: есть

x264/MediaInfo

---[Information] [29.11.2017 23:25:21] x264 [info]: frame I:1199 Avg QP:12.56 size: 56074
---[Information] [29.11.2017 23:25:21] x264 [info]: frame P:32734 Avg QP:14.49 size: 22184
---[Information] [29.11.2017 23:25:21] x264 [info]: frame B:116883 Avg QP:16.73 size: 6600
Общее
Уникальный идентификатор : 210191387874559107866330813143435246385 (0x9E2163882258D62AB78351C4C9A4FB31)
Полное имя : M:\$new\Tulip Fever (2017)\Tulip.Fever.2017.BDRip-AVC.RUS.ENG.stalkerok.new-team.mkv
Формат : Matroska
Версия формата : Version 4 / Version 2
Размер файла : 2,07 Гбайт
Продолжительность : 1 ч. 44 м.
Общий поток : 2821 Кбит/сек
Название фильма : Tulip Fever (2017) (Rip by stalkerok)
Дата кодирования : UTC 2017-11-29 20:58:17
Программа кодирования : mkvmerge v8.6.1 ('Flying') 64bit
Библиотека кодирования : libebml v1.3.3 + libmatroska v1.4.4
Видео
Идентификатор : 1
Формат : AVC
Формат/Информация : Advanced Video Codec
Профиль формата : [email protected]
Параметр CABAC формата : Да
Параметр ReFrames формата : 13 кадров
Идентификатор кодека : V_MPEG4/ISO/AVC
Продолжительность : 1 ч. 44 м.
Битрейт : 1990 Кбит/сек
Ширина : 1152 пикселя
Высота : 482 пикселя
Соотношение сторон : 2,40:1
Режим частоты кадров : Постоянный
Частота кадров : 23,976 (24000/1001) кадра/сек
Цветовое пространство : YUV
Субдискретизация насыщенности : 4:2:0
Битовая глубина : 8 бит
Тип развёртки : Прогрессивная
Бит/(Пиксели*Кадры) : 0.149
Размер потока : 1,46 Гбайт (70%)
Заголовок : Tulip Fever (2017) (Rip by stalkerok)
Библиотека кодирования : x264 core 152 r2851kMod ba24899
Настройки программы : cabac=1 / ref=13 / deblock=1:-3:-2 / analyse=0x3:0x133 / me=umh / subme=11 / psy=1 / fade_compensate=0.00 / psy_rd=1.00:0.00 / mixed_ref=1 / me_range=32 / chroma_me=1 / trellis=2 / 8x8dct=1 / cqm=0 / deadzone=21,11 / fast_pskip=0 / chroma_qp_offset=-2 / threads=12 / lookahead_threads=3 / sliced_threads=0 / nr=0 / decimate=1 / interlaced=0 / bluray_compat=0 / constrained_intra=0 / bframes=13 / b_pyramid=2 / b_adapt=2 / b_bias=0 / direct=3 / weightb=1 / open_gop=0 / weightp=2 / keyint=240 / keyint_min=23 / scenecut=40 / intra_refresh=0 / rc_lookahead=60 / rc=crf / mbtree=0 / crf=16.9000 / qcomp=0.65 / qpmin=0 / qpmax=69 / qpstep=4 / vbv_maxrate=50000 / vbv_bufsize=62500 / crf_max=0.0 / nal_hrd=none / filler=0 / ip_ratio=1.40 / pb_ratio=1.30 / aq=3:0.80 / zones=140293,150815,q=32
Default : Да
Forced : Нет
Аудио #1
Идентификатор : 2
Формат : AC-3
Формат/Информация : Audio Coding 3
Расширение режима : CM (complete main)
Параметр Endianness формата : Big
Идентификатор кодека : A_AC3
Продолжительность : 1 ч. 44 м.
Вид битрейта : Постоянный
Битрейт : 384 Кбит/сек
Каналы : 6 каналов
Расположение каналов : Front: L C R, Side: L R, LFE
Частота : 48,0 КГц
Частота кадров : 31,250 кадров/сек (1536 spf)
Метод сжатия : С потерями
Размер потока : 288 Мбайт (14%)
Язык : Russian
Default : Да
Forced : Нет
Аудио #2
Идентификатор : 3
Формат : AC-3
Формат/Информация : Audio Coding 3
Расширение режима : CM (complete main)
Параметр Endianness формата : Big
Идентификатор кодека : A_AC3
Продолжительность : 1 ч. 44 м.
Вид битрейта : Постоянный
Битрейт : 448 Кбит/сек
Каналы : 6 каналов
Расположение каналов : Front: L C R, Side: L R, LFE
Частота : 48,0 КГц
Частота кадров : 31,250 кадров/сек (1536 spf)
Метод сжатия : С потерями
Размер потока : 336 Мбайт (16%)
Язык : English
Default : Нет
Forced : Нет
Текст #1
Идентификатор : 4
Формат : UTF-8
Идентификатор кодека : S_TEXT/UTF8
Идентификатор кодека/Информация : UTF-8 Plain Text
Продолжительность : 1 ч. 36 м.
Битрейт : 50 бит/сек
Count of elements : 1345
Размер потока : 36,0 Кбайт (0%)
Язык : English
Default : Нет
Forced : Нет
Текст #2
Идентификатор : 5
Формат : UTF-8
Идентификатор кодека : S_TEXT/UTF8
Идентификатор кодека/Информация : UTF-8 Plain Text
Продолжительность : 1 ч. 44 м.
Битрейт : 57 бит/сек
Count of elements : 1675
Размер потока : 43,8 Кбайт (0%)
Заголовок : SDH
Язык : English
Default : Нет
Forced : Нет
Текст #3
Идентификатор : 6
Формат : UTF-8
Идентификатор кодека : S_TEXT/UTF8
Идентификатор кодека/Информация : UTF-8 Plain Text
Продолжительность : 1 ч. 44 м.
Битрейт : 112 бит/сек
Count of elements : 1676
Размер потока : 86,5 Кбайт (0%)
Заголовок : SDH Colored
Язык : English
Default : Нет
Forced : Нет
Меню
00:00:00.000 : en:Chapter 00
00:00:05.005 : en:Chapter 01
00:03:38.009 : en:Chapter 02
00:09:02.875 : en:Chapter 03
00:14:53.142 : en:Chapter 04
00:20:35.651 : en:Chapter 05
00:26:34.092 : en:Chapter 06
00:33:49.694 : en:Chapter 07
00:39:18.856 : en:Chapter 08
00:45:59.381 : en:Chapter 09
00:52:01.326 : en:Chapter 10
00:58:34.135 : en:Chapter 11
01:05:41.479 : en:Chapter 12
01:12:02.109 : en:Chapter 13
01:18:28.495 : en:Chapter 14
01:23:10.318 : en:Chapter 15
01:27:34.624 : en:Chapter 16
01:33:00.366 : en:Chapter 17
01:37:34.557 : en:Chapter 18

Скриншоты

[erzsebet.pl].t34.torrent
Torrent: Registered [ 2017-12-02 15:58 ] · 7743D31F2B8966834FA5CB3FB884F3C754A9BBCC

Download .torrent

Download

11 KB

Status: checked
Completed: 16 times
Size: 2.07 GB
terms.php
[Profile] [PM]
Display posts:    
Reply to topic

Current time is: 04-Mar 21:47

All times are UTC ± 0



You cannot post new topics in this forum
You cannot reply to topics in this forum
You cannot edit your posts in this forum
You cannot delete your posts in this forum
You cannot vote in polls in this forum
You cannot attach files in this forum
You can download files in this forum