Тюльпанная лихорадка / Tulip Fever (Джастин Чадвик / Justin Chadwick) [2017, Великобритания, США, драма, мелодрама, BDRip-AVC] Dub

Reply to topic
DL-List and Torrent activity
Size:  1.28 GB   |    Registered:  3 years 3 months   |    Completed:  16 times

Seeder not seen: Never

 
   
 
 
Author Message

erzsebet.org ®

Longevity: 3 years 2 months

Posts: 47596

Post 02-Dec-2017 15:57

[Quote]

Тюльпанная лихорадка
Tulip Fever
Страна: Великобритания, США
Жанр: драма, мелодрама
Год выпуска: 2017
Продолжительность: 01:44:58
Перевод: Профессиональный (полное дублирование) [iTunes]
Субтитры: нет
Оригинальная аудиодорожка: нет
Режиссер: Джастин Чадвик / Justin Chadwick
В ролях: Алисия Викандер, Дэйн ДеХаан, Кристоф Вальц, Зак Галифианакис, Джуди Денч, Холлидей Грейнджер, Джек О’Коннелл, Мэттью Моррисон, Кара Делевинь, Том Холландер, Кевин МакКидд, Дуглас Ходж
Описание:
Голландия, 17 век. Луковицы прекрасных цветов становятся причиной баснословного богатства или унизительной нищеты. Жители Амстердама готовы ради них на все: обман, подлог... и даже убийство. В атмосфере всеобщей тюльпаномании страсть бедного художника к молодой обольстительной жене стареющего богатого торговца может завести очень далеко.

Автор рипа: stalkerok
Сэмпл
Качество видео: BDRip-AVC [Tulip.Fever.2017.1080p.BluRay.REMUX.AVC.DTS-HD.MA.5.1-FGT]
Формат видео: MKV
Видео: 1367 Кбит/сек, 1076x450 (2.40:1), 23,976 кадр/сек, AVC
Аудио: русский, 384 Кбит/сек, 48 КГц, 5.1, AC3
Навигация по главам: есть

x264/MediaInfo

---[Information] [29.11.2017 19:33:37] x264 [info]: frame I:1198 Avg QP:14.14 size: 41569
---[Information] [29.11.2017 19:33:37] x264 [info]: frame P:32519 Avg QP:16.08 size: 15667
---[Information] [29.11.2017 19:33:37] x264 [info]: frame B:117099 Avg QP:18.96 size: 4403
General
Unique ID : 188313615802134052409309230657438049264 (0x8DABE216D574C1E9A98F7CC77F8563F0)
Complete name : M:\$new\Tulip Fever (2017)\Tulip.Fever.2017.BDRip-AVC.RUS.stalkerok.new-team.mkv
Format : Matroska
Format version : Version 4 / Version 2
File size : 1.28 GiB
Duration : 1 h 44 min
Overall bit rate : 1 751 kb/s
Movie name : Tulip Fever (2017) (Rip by stalkerok)
Encoded date : UTC 2017-11-29 17:27:25
Writing application : mkvmerge v8.6.1 ('Flying') 64bit
Writing library : libebml v1.3.3 + libmatroska v1.4.4
Video
ID : 1
Format : AVC
Format/Info : Advanced Video Codec
Format profile : [email protected]
Format settings, CABAC : Yes
Format settings, ReFrames : 14 frames
Codec ID : V_MPEG4/ISO/AVC
Duration : 1 h 44 min
Bit rate : 1 367 kb/s
Width : 1 076 pixels
Height : 450 pixels
Display aspect ratio : 2.40:1
Frame rate mode : Constant
Frame rate : 23.976 (24000/1001) FPS
Color space : YUV
Chroma subsampling : 4:2:0
Bit depth : 8 bits
Scan type : Progressive
Bits/(Pixel*Frame) : 0.118
Stream size : 1.00 GiB (78%)
Title : Tulip Fever (2017) (Rip by stalkerok)
Writing library : x264 core 152 r2851kMod ba24899
Encoding settings : cabac=1 / ref=14 / deblock=1:-3:-2 / analyse=0x3:0x133 / me=umh / subme=11 / psy=1 / fade_compensate=0.00 / psy_rd=1.00:0.00 / mixed_ref=1 / me_range=32 / chroma_me=1 / trellis=2 / 8x8dct=1 / cqm=0 / deadzone=21,11 / fast_pskip=0 / chroma_qp_offset=-2 / threads=12 / lookahead_threads=3 / sliced_threads=0 / nr=0 / decimate=1 / interlaced=0 / bluray_compat=0 / constrained_intra=0 / bframes=14 / b_pyramid=2 / b_adapt=2 / b_bias=0 / direct=3 / weightb=1 / open_gop=0 / weightp=2 / keyint=240 / keyint_min=23 / scenecut=40 / intra_refresh=0 / rc_lookahead=60 / rc=crf / mbtree=0 / crf=18.3000 / qcomp=0.65 / qpmin=0 / qpmax=69 / qpstep=4 / vbv_maxrate=50000 / vbv_bufsize=62500 / crf_max=0.0 / nal_hrd=none / filler=0 / ip_ratio=1.40 / pb_ratio=1.30 / aq=3:0.80 / zones=140293,150815,q=35
Default : Yes
Forced : No
Audio
ID : 2
Format : AC-3
Format/Info : Audio Coding 3
Mode extension : CM (complete main)
Format settings, Endianness : Big
Codec ID : A_AC3
Duration : 1 h 44 min
Bit rate mode : Constant
Bit rate : 384 kb/s
Channel(s) : 6 channels
Channel positions : Front: L C R, Side: L R, LFE
Sampling rate : 48.0 kHz
Frame rate : 31.250 FPS (1536 spf)
Compression mode : Lossy
Stream size : 288 MiB (22%)
Language : Russian
Default : Yes
Forced : No
Menu
00:00:00.000 : en:Chapter 00
00:00:05.005 : en:Chapter 01
00:03:38.009 : en:Chapter 02
00:09:02.875 : en:Chapter 03
00:14:53.142 : en:Chapter 04
00:20:35.651 : en:Chapter 05
00:26:34.092 : en:Chapter 06
00:33:49.694 : en:Chapter 07
00:39:18.856 : en:Chapter 08
00:45:59.381 : en:Chapter 09
00:52:01.326 : en:Chapter 10
00:58:34.135 : en:Chapter 11
01:05:41.479 : en:Chapter 12
01:12:02.109 : en:Chapter 13
01:18:28.495 : en:Chapter 14
01:23:10.318 : en:Chapter 15
01:27:34.624 : en:Chapter 16
01:33:00.366 : en:Chapter 17
01:37:34.557 : en:Chapter 18

Скриншоты

[erzsebet.pl].t35.torrent
Torrent: Registered [ 2017-12-02 15:58 ] · CA7F714772B750AA313EDEFFAC6B8264CA4DB492

Download .torrent

Download

14 KB

Status: checked
Completed: 16 times
Size: 1.28 GB
terms.php
[Profile] [PM]
Display posts:    
Reply to topic

Current time is: 04-Mar 00:15

All times are UTC ± 0



You cannot post new topics in this forum
You cannot reply to topics in this forum
You cannot edit your posts in this forum
You cannot delete your posts in this forum
You cannot vote in polls in this forum
You cannot attach files in this forum
You can download files in this forum