Неприкаянные / The Misfits (Джон Хьюстон / John Huston) [1961, США, драма, мелодрама, вестерн, DVDRip] MVO

DL-List and Torrent activity
Size:  741 MB   |    Registered:  2 years 9 months   |    Completed:  16 times
Seeders:  6  
 
   
 
 

erzsebet.org ®

Longevity:
2 years 9 months
Posts:
47596

[Quote] 

Неприкаянные / The Misfits
Год выпуска: 1961
Страна: США
Жанр: драма, мелодрама
Продолжительность: 02:04:55
Перевод: Профессиональный (многоголосый, закадровый)
Русские субтитры: нет
Режиссер: Джон Хьюстон / John Huston
В ролях: Кларк Гейбл, Мэрилин Монро, Монтгомери Клифт, Джеймс Бартон / Clark Gable, Marilyn Monroe, Montgomery Clift, James Barton
Описание: В пятидесятых годах двадцатого века ковбои как класс уже становились редкостью для Запада. Индустриализация Америки набрала такие обороты, что им уже не было места в этой жизни, но они судорожно цеплялись за любую возможность доказать свою «самость» и нужность, брались за любую, даже очень низко оплачиваемую работу, и уже жили только воспоминаниями о былых подвигах…
Три старинных приятеля Гай, Гвидо и Пирс болтаются по захолустью в поисках хоть какой-то работенки, надеясь на случай и мечтая хоть как-то улучшить свое незавидное положение. В заштатном городишке Рино они знакомятся с потрясающей сексапильной блондинкой Розалин Тэйбер (Мэрилин Монро), которая сбежала от тирана-мужа и теперь не знает чем заняться в этой жизни. Раньше она была стриптизершей…
Последний законченный фильм Мэрилин Монро и последний фильм Кларка Гейбла.


7.4/10 5,862 votes-Доп. информация: DVD5
Качество: DVDRip
Формат: AVI
Видео кодек: XviD
Аудио кодек: MP3
Видео: 624x400 25fps XviD (2-pass) 704Kbps
Аудио: MPEG Layer 3 44100Hz Stereo 112Kbps

mediainfo

[email protected]:~$ mediainfo /media/d/Downloads/Torrent/The.Misfits.DVDrip/The_Misfits.DVDrip.avi
General
Complete name : /media/d/Downloads/Torrent/The.Misfits.DVDrip/The_Misfits.DVDrip.avi
Format : AVI
Format/Info : Audio Video Interleave
File size : 741 MiB
Duration : 2h 4mn
Overall bit rate : 829 Kbps
Video
ID : 0
Format : MPEG-4 Visual
Format profile : [email protected]
Format settings, BVOP : Yes
Format settings, QPel : No
Format settings, GMC : No warppoints
Format settings, Matrix : Default (H.263)
Codec ID : XVID
Codec ID/Hint : XviD
Duration : 2h 4mn
Bit rate : 705 Kbps
Width : 624 pixels
Height : 400 pixels
Display aspect ratio : 1.560
Frame rate : 25.000 fps
Resolution : 24 bits
Colorimetry : 4:2:0
Scan type : Progressive
Bits/(Pixel*Frame) : 0.113
Stream size : 629 MiB (85%)
Writing library : XviD 1.1.2 (UTC 2006-11-01)
Audio
ID : 1
Format : MPEG Audio
Format version : Version 1
Format profile : Layer 3
Codec ID : 55
Codec ID/Hint : MP3
Duration : 2h 4mn
Bit rate mode : Constant
Bit rate : 112 Kbps
Channel(s) : 2 channels
Sampling rate : 44.1 KHz
Resolution : 16 bits
Stream size : 100 MiB (14%)
Alignment : Split accross interleaves
Interleave, duration : 26 ms (0.65 video frame)

Скриншоты

If your ratio falls below 0.3, you will not be able to download Torrents! More about the rating.

[erzsebet.pl].t355.torrent
Torrent: Registered   [ 2017-12-02 16:36 ]

Download .torrent

Download

15 KB

Status: checked
Completed: 16 times
Size: 741 MB
terms.php

#1

02-Dec-2017 16:35

[Profile]  [PM] 
Display posts:    

You cannot post new topics in this forum
You cannot reply to topics in this forum
You cannot edit your posts in this forum
You cannot delete your posts in this forum
You cannot vote in polls in this forum
You cannot attach files in this forum
You can download files in this forum
User agreement
For copyright holders
Advertise on this site

Скачайте на халяву через торрент на трекере erzsebet.pl

!ATTENTION!
The site does not give electronic versions of products, and is engaged only in a collecting and cataloguing of the references sent and published at a forum by our readers. If you are the legal owner of any submitted material and do not wish that the reference to it was in our catalogue, contact us and we shall immediately remove her. Files for an exchange on tracker are given by users of a site, and the administration does not bear the responsibility for their maintenance. The request to not fill in the files protected by copyrights, and also files of the illegal maintenance!