Веселая пасха / Joyeuses Pâques (Жорж Лотнер / Georges Lautner) [1984, Франция, комедия, BDRip-AVC] DVO + MVO + Sub Rus + Original Fre

Reply to topic
DL-List and Torrent activity
Size:  2.16 GB   |    Registered:  3 years 3 months   |    Completed:  16 times

Seeder not seen: Never

 
   
 
 
Author Message

erzsebet.org ®

Longevity: 3 years 2 months

Posts: 47596

Post 02-Dec-2017 15:57

[Quote]

Веселая пасха / Joyeuses Pâques- Страна: Франция
Жанр: комедия
Год выпуска: 1984
Продолжительность: 01:38:17
Перевод 1: Профессиональный (двухголосый закадровый) ОРТ
Перевод 2: Профессиональный (многоголосый закадровый) Останкино
Оригинальная аудиодорожка: французский
Субтитры: русские-Режиссер: Жорж Лотнер / Georges Lautner-В ролях: Жан-Поль Бельмондо, Софи Марсо, Мари Лафоре, Рози Варт, Мишель Бон, Мари-Кристин Декуар, Жерар Эрнандес, Элизабет Кольаммар, Флора Альберти, Марк Ламоль
Описание: Проводив жену в аэропорт, бизнесмен и неисправимый ловелас Стефан тут же знакомится с юной прелестницей. Он приводит её к себе домой, но внезапно возвращается жена. Пытаясь выкрутиться, Стефан выдаёт девушку за свою дочь.-Сэмпл | Кинопоиск-Качество видео: BDRip-AVC / Joyeuses.Paques.1984.BDRemux.AVC.ac3.3ru.fr.[Galar]
Формат видео: MKV
Видео: x264 ([email protected]); 1016x432 23.976 fps; Display aspect ratio: 2.352:1; 2537 Kbps
Аудио 1: Русский: AC-3; 16 bits 48 Khz; 2.0ch 192 Kbps; CBR | DVO, спасибо Master_Bum
Аудио 2: Русский : AC-3; 16 bits 48 Khz; 2.0ch 192 Kbps; CBR | MVO, спасибо Hel_ka67
Аудио 3: Французский: AC-3; 16 bits 48 Khz; 2.0ch 224 Kbps; CBR | Original, спасибо Diablo (Кинозал)
Формат субтитров: softsub (SRT)

Доп. инфо

Французская дорожка перекодирована с ремукса DIABLO (DTSHD-MA).

MediaInfo

x264 log

avs [info]: 1016x432p 1:1 @ 24000/1001 fps (cfr)
x264 [info]: using SAR=1/1
x264 [info]: using cpu capabilities: MMX2 SSE2Fast SSSE3 SSE4.2
x264 [info]: profile High, level 4.1
x264 [info]: frame I:1245 Avg QP:18.89 size: 57678
x264 [info]: frame P:30653 Avg QP:20.54 size: 23962
x264 [info]: frame B:109491 Avg QP:22.17 size: 9698
x264 [info]: consecutive B-frames: 1.8% 2.4% 6.3% 25.2% 20.8% 36.1% 4.7% 1.7% 0.5% 0.3% 0.1%
x264 [info]: mb I I16..4: 2.5% 80.7% 16.8%
x264 [info]: mb P I16..4: 0.2% 8.2% 1.4% P16..4: 31.5% 42.0% 15.1% 0.0% 0.0% skip: 1.7%
x264 [info]: mb B I16..4: 0.0% 0.8% 0.2% B16..8: 39.0% 23.4% 4.8% direct: 6.3% skip:25.5% L0:43.8% L1:43.8% BI:12.4%
x264 [info]: 8x8 transform intra:83.2% inter:59.6%
x264 [info]: coded y,uvDC,uvAC intra: 97.0% 86.6% 51.6% inter: 36.6% 26.8% 1.1%
x264 [info]: i16 v,h,dc,p: 24% 23% 4% 48%
x264 [info]: i8 v,h,dc,ddl,ddr,vr,hd,vl,hu: 9% 9% 4% 10% 15% 15% 14% 12% 12%
x264 [info]: i4 v,h,dc,ddl,ddr,vr,hd,vl,hu: 10% 10% 2% 9% 16% 16% 15% 11% 12%
x264 [info]: i8c dc,h,v,p: 33% 26% 22% 19%
x264 [info]: Weighted P-Frames: Y:4.7% UV:2.6%
x264 [info]: ref P L0: 42.1% 12.4% 16.8% 5.8% 5.3% 3.5% 3.5% 1.7% 1.7% 1.3% 1.3% 1.0% 1.1% 0.9% 1.0% 0.6%
x264 [info]: ref B L0: 70.3% 11.1% 5.8% 3.0% 2.2% 1.8% 1.5% 0.9% 0.8% 0.7% 0.6% 0.5% 0.5% 0.3% 0.1%
x264 [info]: ref B L1: 94.3% 5.7%
x264 [info]: kb/s:2537.21

-
General
Unique ID : 172056019240761031767195662306903635366 (0x8170C8B1645039D2B36669DD2DE8B5A6)
Complete name : Веселая пасха.1984.BDRip.mkv
Format : Matroska
Format version : Version 2
File size : 2.16 GiB
Duration : 1 h 38 min
Overall bit rate : 3 147 kb/s
Encoded date : UTC 2017-11-29 13:32:08
Writing application : mkvmerge v7.8.0 ('River Man') 32bit built on Mar 27 2015 16:18:02
Writing library : libebml v1.3.1 + libmatroska v1.4.2
Video
ID : 1
Format : AVC
Format/Info : Advanced Video Codec
Format profile : [email protected]
Format settings, CABAC : Yes
Format settings, ReFrames : 16 frames
Codec ID : V_MPEG4/ISO/AVC
Duration : 1 h 38 min
Bit rate : 2 476 kb/s
Width : 1 016 pixels
Height : 432 pixels
Display aspect ratio : 2.35:1
Frame rate mode : Constant
Frame rate : 23.976 (24000/1001) FPS
Color space : YUV
Chroma subsampling : 4:2:0
Bit depth : 8 bits
Scan type : Progressive
Bits/(Pixel*Frame) : 0.235
Stream size : 1.70 GiB (79%)
Title : Веселая пасха / Joyeuses pâques.1984
Writing library : x264 core 152 r2851kMod ba24899
Encoding settings : cabac=1 / ref=16 / deblock=1:-3:-1 / analyse=0x3:0x113 / me=umh / subme=11 / psy=1 / fade_compensate=0.00 / psy_rd=1.00:0.00 / mixed_ref=1 / me_range=32 / chroma_me=1 / trellis=2 / 8x8dct=1 / cqm=0 / deadzone=21,11 / fast_pskip=1 / chroma_qp_offset=-2 / threads=12 / lookahead_threads=3 / sliced_threads=0 / nr=0 / decimate=1 / interlaced=0 / bluray_compat=0 / constrained_intra=0 / bframes=10 / b_pyramid=2 / b_adapt=2 / b_bias=0 / direct=1 / weightb=1 / open_gop=0 / weightp=2 / keyint=240 / keyint_min=23 / scenecut=40 / intra_refresh=0 / rc_lookahead=60 / rc=crf / mbtree=0 / crf=18.5000 / qcomp=0.65 / qpmin=0 / qpmax=40 / qpstep=4 / vbv_maxrate=50000 / vbv_bufsize=62500 / crf_max=0.0 / nal_hrd=none / filler=0 / ip_ratio=1.30 / pb_ratio=1.20 / aq=1:0.50 / zones=0,503,crf=16
Language : French
Default : Yes
Forced : No
Color range : Limited
Color primaries : BT.709
Transfer characteristics : BT.709
Matrix coefficients : BT.709
Audio #1
ID : 2
Format : AC-3
Format/Info : Audio Coding 3
Mode extension : CM (complete main)
Format settings, Endianness : Big
Codec ID : A_AC3
Duration : 1 h 38 min
Bit rate mode : Constant
Bit rate : 192 kb/s
Channel(s) : 2 channels
Channel positions : Front: L R
Sampling rate : 48.0 kHz
Frame rate : 31.250 FPS (1536 spf)
Compression mode : Lossy
Stream size : 135 MiB (6%)
Title : DVO: AC-3; 16 bits 48 Khz; 2.0ch 192 Kbps; CBR | ОРТ
Language : Russian
Default : Yes
Forced : No
Audio #2
ID : 3
Format : AC-3
Format/Info : Audio Coding 3
Mode extension : CM (complete main)
Format settings, Endianness : Big
Codec ID : A_AC3
Duration : 1 h 38 min
Bit rate mode : Constant
Bit rate : 192 kb/s
Channel(s) : 2 channels
Channel positions : Front: L R
Sampling rate : 48.0 kHz
Frame rate : 31.250 FPS (1536 spf)
Compression mode : Lossy
Stream size : 135 MiB (6%)
Title : MVO: AC-3; 16 bits 48 Khz; 2.0ch 192 Kbps; CBR | Останкино
Language : Russian
Default : No
Forced : No
Audio #3
ID : 4
Format : AC-3
Format/Info : Audio Coding 3
Mode extension : CM (complete main)
Format settings, Endianness : Big
Codec ID : A_AC3
Duration : 1 h 38 min
Bit rate mode : Constant
Bit rate : 224 kb/s
Channel(s) : 2 channels
Channel positions : Front: L R
Sampling rate : 48.0 kHz
Frame rate : 31.250 FPS (1536 spf)
Compression mode : Lossy
Stream size : 157 MiB (7%)
Title : AC-3; 16 bits 48 Khz; 2.0ch 224 Kbps; CBR | Original fre
Language : French
Default : No
Forced : No
Text
ID : 5
Format : UTF-8
Codec ID : S_TEXT/UTF8
Codec ID/Info : UTF-8 Plain Text
Title : Субтитры русские
Language : Russian
Default : No
Forced : No

Скриншоты

[erzsebet.pl].t37.torrent
Torrent: Registered [ 2017-12-02 15:58 ] · 0FBFBE7110EAA7A78B27EA4160E9719F49FBF304

Download .torrent

Download

11 KB

Status: checked
Completed: 16 times
Size: 2.16 GB
terms.php
[Profile] [PM]
Display posts:    
Reply to topic

Current time is: 08-Mar 03:35

All times are UTC ± 0



You cannot post new topics in this forum
You cannot reply to topics in this forum
You cannot edit your posts in this forum
You cannot delete your posts in this forum
You cannot vote in polls in this forum
You cannot attach files in this forum
You can download files in this forum