Пролетая над гнездом кукушки / One Flew Over the Cuckoo's Nest (Милош Форман / Milos Forman) [1975, США, драма, BDRip-AVC] Dub

DL-List and Torrent activity
Size:  1.45 GB   |    Registered:  2 years 9 months   |    Completed:  16 times
Seeders:  16  
 
   
 
 

erzsebet.org ®

Longevity:
2 years 9 months
Posts:
47596

[Quote] 

-Пролетая над гнездом кукушки / One Flew Over the Cuckoo's Nest
«If he's crazy, what does that make you?»- -Страна: США
Жанр: драма
Год выпуска: 1975
Продолжительность: 02:13:42-Перевод: Профессиональный (дублированный)
Субтитры: нет
Оригинальная аудиодорожка: нет-Режиссер: Милош Форман / Milos Forman-В ролях: Джек Николсон, Луиз Флетчер, Уильям Редфилд, Сидни Лэссик, Брэд Дуриф, Кристофер Ллойд, Уилл Сэмпсон, Дэнни ДеВито, Дин Р. Брукс, Скэтман Крозерс, Винсент Скьявелли, Муако Кумбука, Натан Джордж, Алонсо Браун, Питер Брокко, Луиза Моритц, Майкл Берриман, Кен Кенни, Дуайт Марфилд, Тед Марклэнд, Филип Рот, Мел Ламберт, Кей Ли-Описание: Драма «Пролетая над гнездом кукушки» Милоша Формана - культовая экранизация одноименного романа Кена Кизи. Это фильм о бунте против тоталитарной системы, бунте, который так и не вырос до размеров настоящей войны. И это фильм о поражении. И пусть даже бунт закончился полным разгромом, остаются вопросы – о том, был ли в нем смысл, если да, то не лучше ли идти на него с трезвым расчетом, а не с упованием на удачу. Хотя, в сущности, это и есть природа бунта против системы – надежда на чудо.
Второй в истории фильм, собравший 5 главных «Оскаров» (первым был «Человек на все времена» 1966 года), роль в котором прижизненно вознесла Джека Николсона на пьедестал, выше которого только звезды. О «Пролетая над гнездом кукушки» можно было бы сказать, что без него не было бы мирового кино таким, каким мы его сейчас знаем, не будь это таким ужасным штампом. А что делать. Ведь действительно – не было бы.
История мелкого бандита Рэндалла Патрика МакМёрфи, который, попав за решетку, решил отсидеться в психушке, дабы не перетрудиться, и одним своим присутствием, неуемной энергией вольного человека, разрушает местные порядки, ставя их с ног на голову. МакМёрфи успевает выиграть битву за сердца умалишенных у медсестры Рэтчед, карманной диктаторши, для которой чужая слабость – ее сила. МакМёрфи остр на язык, беспечен, где это необходимо, и не умеет пасовать перед трудностями. Пожалуй, это самый обаятельный бандит из всех, что когда-либо появлялись на киноэкранах вообще.- - -Качество видео: BDRip-AVC / BDRemux 1080p
Формат видео: MKV-Видео: MPEG-4 AVC, 896x504 (16:9), 23.976 fps, ~1362 kbps avg, 0.126 bit/pixel
Аудио: 48 kHz, AC3 Dolby Digital, 1/0 (C), ~192 kbps avg-

MediaInfo

Complete name : D:\Раздачи\Пролетая над гнездом кукушки (1975) BDRip-AVC_ivanes20031987.mkv
Format : Matroska
Format version : Version 2
File size : 1.45 GiB
Duration : 2 h 13 min
Overall bit rate : 1 556 kb/s
Encoded date : UTC 2017-08-13 22:23:26
Writing application : mkvmerge v4.8.0 ('I Got The...') сборка от May 24 2011 03:12:58
Writing library : libebml v1.2.0 + libmatroska v1.1.0
Cover : Yes
Attachments : cover.png
Video
ID : 1
Format : AVC
Format/Info : Advanced Video Codec
Format profile : [email protected]
Format settings, CABAC : Yes
Format settings, RefFrames : 13 frames
Codec ID : V_MPEG4/ISO/AVC
Duration : 2 h 13 min
Bit rate : 1 362 kb/s
Width : 896 pixels
Height : 504 pixels
Display aspect ratio : 16:9
Frame rate mode : Constant
Frame rate : 23.976 (24000/1001) FPS
Color space : YUV
Chroma subsampling : 4:2:0
Bit depth : 8 bits
Scan type : Progressive
Bits/(Pixel*Frame) : 0.126
Stream size : 1.24 GiB (86%)
Writing library : x264 core 152 r2851kMod ba24899
Encoding settings : cabac=1 / ref=13 / deblock=1:-2:-2 / analyse=0x3:0x113 / me=umh / subme=10 / psy=1 / fade_compensate=0.00 / psy_rd=1.00:0.00 / mixed_ref=1 / me_range=32 / chroma_me=1 / trellis=2 / 8x8dct=1 / cqm=0 / deadzone=21,11 / fast_pskip=0 / chroma_qp_offset=-2 / threads=12 / lookahead_threads=3 / sliced_threads=0 / nr=0 / decimate=0 / interlaced=0 / bluray_compat=0 / constrained_intra=0 / bframes=13 / b_pyramid=2 / b_adapt=2 / b_bias=0 / direct=1 / weightb=1 / open_gop=0 / weightp=2 / keyint=240 / keyint_min=23 / scenecut=40 / intra_refresh=0 / rc_lookahead=60 / rc=2pass / mbtree=0 / bitrate=1362 / ratetol=1.0 / qcomp=0.60 / qpmin=0 / qpmax=69 / qpstep=4 / cplxblur=20.0 / qblur=0.5 / vbv_maxrate=50000 / vbv_bufsize=62500 / nal_hrd=none / filler=0 / ip_ratio=1.40 / pb_ratio=1.30 / aq=1:1.00
Default : Yes
Forced : No
Audio
ID : 2
Format : AC-3
Format/Info : Audio Coding 3
Format settings, Endianness : Big
Codec ID : A_AC3
Duration : 2 h 13 min
Bit rate mode : Constant
Bit rate : 192 kb/s
Channel(s) : 1 channel
Channel positions : Front: C
Sampling rate : 48.0 kHz
Frame rate : 31.250 FPS (1536 SPF)
Bit depth : 16 bits
Compression mode : Lossy
Stream size : 184 MiB (12%)
Title : Дубляж
Language : Russian
Service kind : Complete Main
Default : Yes
Forced : No

Скриншоты

If your ratio falls below 0.3, you will not be able to download Torrents! More about the rating.

[erzsebet.pl].t375.torrent
Torrent: Registered   [ 2017-12-02 16:40 ]

Download .torrent

Download

15 KB

Status: checked
Completed: 16 times
Size: 1.45 GB
terms.php

#1

02-Dec-2017 16:39

[Profile]  [PM] 
Display posts:    

You cannot post new topics in this forum
You cannot reply to topics in this forum
You cannot edit your posts in this forum
You cannot delete your posts in this forum
You cannot vote in polls in this forum
You cannot attach files in this forum
You can download files in this forum
User agreement
For copyright holders
Advertise on this site

Скачайте на халяву через торрент на трекере erzsebet.pl

!ATTENTION!
The site does not give electronic versions of products, and is engaged only in a collecting and cataloguing of the references sent and published at a forum by our readers. If you are the legal owner of any submitted material and do not wish that the reference to it was in our catalogue, contact us and we shall immediately remove her. Files for an exchange on tracker are given by users of a site, and the administration does not bear the responsibility for their maintenance. The request to not fill in the files protected by copyrights, and also files of the illegal maintenance!