Мойше-вентилятор / Moishe Ventilator / Moishe Air-Condition (Ури Зохар / Uri Zohar) [1966, Израиль, комедия, SATRip] + Sub Rus + Original Heb

DL-List and Torrent activity
Size:  1.37 GB   |    Registered:  2 years 9 months   |    Completed:  16 times
Seeders:  1  
 
   
 
 

erzsebet.org ®

Longevity:
2 years 9 months
Posts:
47596

[Quote] 

Мойше-вентилятор / Moishe Ventilator / Moishe Air-Condition
Страна: Израиль
Жанр: комедия
Год выпуска: 1966
Продолжительность: 01:31:42
Перевод: Субтитры
Субтитры: русские
Оригинальная аудиодорожка: иврит
Режиссер: Ури Зохар / Uri Zohar
В ролях: Якоб Бодо, Шайке Офир, Гаври Банай, Исраэль Поляков, Яков Бен-Сира, Гидеон Зингер, Ори Леви, Авраам Мор, Тиква Мор,
Описание: Отличительная черта новобранца Мойше - неисправимая бережливость. Если что-то на базе транжириться впустую, Мойше тут же прибирает это. Вскоре после призыва Мойше, на базу пробирается тайный агент 000 пытаясь выкрасть секретную карту, но его планы нарушаются, он оставляет следы и теряет полкарты, которую подбирает ничего не подозревающий Мойше. Из-за поведения Мойше, армейское начальство подозревает, что он и есть агент 000, а сам агент пытается во чтобы то ни стало найти оставшуюся часть карты.
Доп. информация: За предоставленную тв запись спасибо abraka.
Сэмпл: http://sendfile.su/1381128
Качество видео: SATRip
Формат видео: AVI
Видео: Xvid 704x400 25fps 1994kbps
Аудио: MP3 48000Hz stereo 128kbps
Формат субтитров: hardsub (неотключаемые)

MediaInfo

General
Complete name : C:\Downloads\Моше Вентилятор.avi
Format : AVI
Format/Info : Audio Video Interleave
File size : 1.37 GiB
Duration : 1h 31mn
Overall bit rate : 2 133 Kbps
Writing library : VirtualDub-MPEG2 build 24600/release
Video
ID : 0
Format : MPEG-4 Visual
Format profile : [email protected]
Format settings, BVOP : No
Format settings, QPel : No
Format settings, GMC : No warppoints
Format settings, Matrix : Default (H.263)
Codec ID : XVID
Codec ID/Hint : XviD
Duration : 1h 31mn
Bit rate : 1 995 Kbps
Width : 704 pixels
Height : 400 pixels
Display aspect ratio : 16:9
Frame rate : 25.000 fps
Color space : YUV
Chroma subsampling : 4:2:0
Bit depth : 8 bits
Scan type : Progressive
Compression mode : Lossy
Bits/(Pixel*Frame) : 0.283
Stream size : 1.28 GiB (94%)
Writing library : XviD 73
Audio
ID : 1
Format : MPEG Audio
Format version : Version 1
Format profile : Layer 3
Mode : Joint stereo
Mode extension : MS Stereo
Codec ID : 55
Codec ID/Hint : MP3
Duration : 1h 31mn
Bit rate mode : Constant
Bit rate : 128 Kbps
Channel(s) : 2 channels
Sampling rate : 48.0 KHz
Compression mode : Lossy
Stream size : 84.0 MiB (6%)
Alignment : Split accross interleaves
Interleave, duration : 40 ms (1.00 video frame)
Interleave, preload duration : 500 ms

Скриншоты

If your ratio falls below 0.3, you will not be able to download Torrents! More about the rating.

[erzsebet.pl].t38.torrent
Torrent: Registered   [ 2017-12-02 15:58 ]

Download .torrent

Download

14 KB

Status: checked
Completed: 16 times
Size: 1.37 GB
terms.php

#1

02-Dec-2017 15:57

[Profile]  [PM] 
Display posts:    

You cannot post new topics in this forum
You cannot reply to topics in this forum
You cannot edit your posts in this forum
You cannot delete your posts in this forum
You cannot vote in polls in this forum
You cannot attach files in this forum
You can download files in this forum
User agreement
For copyright holders
Advertise on this site

Скачайте на халяву через торрент на трекере erzsebet.pl

!ATTENTION!
The site does not give electronic versions of products, and is engaged only in a collecting and cataloguing of the references sent and published at a forum by our readers. If you are the legal owner of any submitted material and do not wish that the reference to it was in our catalogue, contact us and we shall immediately remove her. Files for an exchange on tracker are given by users of a site, and the administration does not bear the responsibility for their maintenance. The request to not fill in the files protected by copyrights, and also files of the illegal maintenance!