Нас приняли! / Accepted (Стив Пинк / Steve Pink) [2006, США, молодёжная комедия, DVDRip-AVC] [Full Screen] Dub

DL-List and Torrent activity
Size:  1.46 GB   |    Registered:  2 years 9 months   |    Completed:  16 times
Seeders:  1  
 
   
 
 

erzsebet.org ®

Longevity:
2 years 9 months
Posts:
47596

[Quote] 

Нас приняли! / Accepted / Full Screen
Страна: США
Жанр: молодёжная комедия
Год выпуска: 2006
Продолжительность: 01:33:05
-
Перевод: Профессиональный (дублированный)
Субтитры: нет
-
Режиссер: Стив Пинк / Steve Pink
В ролях: Джастин Лонг, Адам Хершман, Блэйк Лайвли, Марк Дервин, Коламбус Шорт, Иона Хилл, Мария Тайер, Джеффри Гулд, Энтони Хилд, Энн Кьюсак, Джереми Хауард, Карла Хименес, Джим Леунг, Келлан Луц, Брайан Пауэлл, Нед Шмидтке, Робин Тэйлор, Кэйтлин Даблдэй
-
Описание: Выпускник средней школы Бартлби Гейнс получил восьмой отказ о приеме в институт, что, конечно, вряд ли устроит его родителей. К счастью, он не один такой. Несколько друзей-одноклассников стоят перед той же проблемой. Так как же парень с унылой перспективой сможет успокоить родителей и добиться расположения красотки Моники? Просто. Он откроет свой собственный университет…
-
Доп. информация:
-
Сэмпл: http://sendfile.su/1381107
-
Качество видео: DVDRip-AVC (DVD9/sl_petrovich)
Формат видео: MKV
Видео: 720x480 (4:3) @ 720x540, 23.976 fps, AVC, ~1 800 Kbps, 0.217 bits/pixel
Аудио: 48 kHz, AC3 Dolby Digital, 3/2 (L,C,R,l,r) + LFE ch, ~448 kbps

MediaInfo

x264 [info]: frame I:1828 Avg QP:16.80 size: 56706
x264 [info]: frame P:28422 Avg QP:19.58 size: 18987
x264 [info]: frame B:103668 Avg QP:21.75 size: 5909-General
Unique ID : 252588944278421872635976576106630288650 (0xBE06DC73B77B945DA227DBDBB6E1150A)
Complete name : C:\Users\ALEX\Desktop\Фильмы\Accepted.Full Screen.2006.RUS.DVDRip-AVC.x264.AC3.mkv
Format : Matroska
Format version : Version 4 / Version 2
File size : 1.46 GiB
Duration : 1 h 33 min
Overall bit rate : 2 247 kb/s
Movie name : Accepted
Encoded date : UTC 2017-11-28 15:42:52
Writing application : mkvmerge v8.5.2 ('Crosses') 64bit
Writing library : libebml v1.3.3 + libmatroska v1.4.4
Video
ID : 1
Format : AVC
Format/Info : Advanced Video Codec
Format profile : [email protected]
Format settings : CABAC / 10 Ref Frames
Format settings, CABAC : Yes
Format settings, RefFrames : 10 frames
Codec ID : V_MPEG4/ISO/AVC
Duration : 1 h 33 min
Bit rate : 1 800 kb/s
Width : 720 pixels
Height : 480 pixels
Display aspect ratio : 4:3
Frame rate mode : Constant
Frame rate : 23.976 (24000/1001) FPS
Color space : YUV
Chroma subsampling : 4:2:0
Bit depth : 8 bits
Scan type : Progressive
Bits/(Pixel*Frame) : 0.217
Stream size : 1.17 GiB (80%)
Title : Accepted
Writing library : x264 core 152 r2851 ba24899
Encoding settings : cabac=1 / ref=10 / deblock=1:-2:-2 / analyse=0x3:0x113 / me=umh / subme=10 / psy=1 / psy_rd=1.00:0.05 / mixed_ref=1 / me_range=32 / chroma_me=1 / trellis=2 / 8x8dct=1 / cqm=0 / deadzone=21,11 / fast_pskip=0 / chroma_qp_offset=-3 / threads=3 / lookahead_threads=1 / sliced_threads=0 / nr=0 / decimate=1 / interlaced=0 / bluray_compat=0 / constrained_intra=0 / bframes=8 / b_pyramid=2 / b_adapt=1 / b_bias=0 / direct=3 / weightb=1 / open_gop=0 / weightp=2 / keyint=240 / keyint_min=23 / scenecut=40 / intra_refresh=0 / rc=2pass / mbtree=0 / bitrate=1800 / ratetol=1.0 / qcomp=0.60 / qpmin=0 / qpmax=69 / qpstep=4 / cplxblur=20.0 / qblur=0.5 / ip_ratio=1.40 / pb_ratio=1.30 / aq=1:1.00
Language : English
Default : No
Forced : No
Audio
ID : 2
Format : AC-3
Format/Info : Audio Coding 3
Format settings, Endianness : Big
Codec ID : A_AC3
Duration : 1 h 32 min
Bit rate mode : Constant
Bit rate : 448 kb/s
Channel(s) : 6 channels
Channel positions : Front: L C R, Side: L R, LFE
Sampling rate : 48.0 kHz
Frame rate : 31.250 FPS (1536 SPF)
Bit depth : 16 bits
Compression mode : Lossy
Stream size : 298 MiB (20%)
Title : DUB
Language : Russian
Service kind : Complete Main
Default : No
Forced : No

Скриншоты

If your ratio falls below 0.3, you will not be able to download Torrents! More about the rating.

[erzsebet.pl].t39.torrent
Torrent: Registered   [ 2017-12-02 15:58 ]

Download .torrent

Download

15 KB

Status: checked
Completed: 16 times
Size: 1.46 GB
terms.php

#1

02-Dec-2017 15:57

[Profile]  [PM] 
Display posts:    

You cannot post new topics in this forum
You cannot reply to topics in this forum
You cannot edit your posts in this forum
You cannot delete your posts in this forum
You cannot vote in polls in this forum
You cannot attach files in this forum
You can download files in this forum
User agreement
For copyright holders
Advertise on this site

Скачайте на халяву через торрент на трекере erzsebet.pl

!ATTENTION!
The site does not give electronic versions of products, and is engaged only in a collecting and cataloguing of the references sent and published at a forum by our readers. If you are the legal owner of any submitted material and do not wish that the reference to it was in our catalogue, contact us and we shall immediately remove her. Files for an exchange on tracker are given by users of a site, and the administration does not bear the responsibility for their maintenance. The request to not fill in the files protected by copyrights, and also files of the illegal maintenance!