Похитители велосипедов / Ladri di biciclette (Витторио Де Сика / Vittorio De Sica) [1948, Италия, драма, BDRip-AVC] MVO (DVD Магия) + AVO (Сербин) + Original Ita + Rus Subs

DL-List and Torrent activity
Size:  1.46 GB   |    Registered:  2 years 9 months   |    Completed:  16 times
Seeders:  8  
 
   
 
 

erzsebet.org ®

Longevity:
2 years 9 months
Posts:
47596

[Quote] 

Похитители велосипедовLadri di biciclette- Год выпуска: 1948
Страна: Италия
Жанр: драма-Продолжительность: 01:28:35
Перевод #1: Профессиональный (многоголосый закадровый) DVD Магия
Перевод #2: Авторский (одноголосый закадровый) Ю. Сербин
Субтитры: русские
Оригинальная аудиодорожка: итальянская-Режиссёр: Витторио Де Сика / Vittorio De Sica
В ролях: Ламберто Маджорани, Энцо Стайола, Лианелла Карелл, Джино Сальтамеренда, Витторио Антонуччи, Джулио Кьяри, Елена Алтьери, Карло Джакино, Микеле Сакара, Эмма Друетти, Фаусто Гуэрдзони и др.-Описание: Послевоенный Рим, давно неработающий Антонио Рикки вне себя от радости — он наконец-то находит работу. Но в первый же трудовой день у него украли велосипед, без которого невозможно работать! Вместе с маленьким сыном Бруно он пытается найти в огромном городе украденный велосипед, от которого зависит жизнь его семьи…-КиноПоиск | IMDb | Sample-Качество: BDRip-AVC (Источник: BICYCLE_THIEVES_BD_BY_VOLSHEBNIK)
Формат: MKV
Видео: x264, 640x480 (4:3), 23.976 fps, ~1779 kbps avg, 0.242 bit/pixel
Аудио #1: Russian 48.0 KHz, АC3, 2 (Front: L R) ch, ~192.00 kbps avg |DVD Магия|
Аудио #2: Russian 48.0 KHz, АC3, 1 (Front: С) ch, ~192.00 kbps avg |Сербин|
Аудио #3: Italiano 48.0 KHz, АC3, 1 (Front: С) ch, ~192.00 kbps avg |Originale|
Формат субтитров: softsub (SRT)-

Релиз

Рип, работа с субтитрами и главами - whip93.
Рип с издания "Arrow".
Цитата:

Сравнения с исходником

Source vs. Encode

MediaInfo | x264 log

x264 log

---[Information] [12.08.2017 14:17:55] raw [info]: 640x480p 1:1 @ 24000/1001 fps (cfr)
---[Information] [12.08.2017 14:17:55] x264 [info]: using SAR=1/1
---[Information] [12.08.2017 14:17:55] x264 [info]: using cpu capabilities: MMX2 SSE2Fast SSSE3 SSE4.2 AVX
---[Information] [12.08.2017 14:17:55] x264 [info]: profile High, level 4.1
---[Information] [12.08.2017 17:46:42] x264 [info]: frame I:858 Avg QP:18.27 size: 56707
---[Information] [12.08.2017 17:46:42] x264 [info]: frame P:31107 Avg QP:21.33 size: 19924
---[Information] [12.08.2017 17:46:42] x264 [info]: frame B:95492 Avg QP:24.33 size: 5382
---[Information] [12.08.2017 17:46:42] x264 [info]: consecutive B-frames: 2.0% 2.6% 9.9% 43.8% 19.9% 19.1% 1.5% 0.5% 0.2% 0.0% 0.1% 0.1% 0.1% 0.3%
---[Information] [12.08.2017 17:46:42] x264 [info]: mb I I16..4: 1.9% 74.4% 23.6%
---[Information] [12.08.2017 17:46:42] x264 [info]: mb P I16..4: 0.1% 8.1% 1.9% P16..4: 31.0% 36.3% 17.6% 3.3% 0.5% skip: 1.3%
---[Information] [12.08.2017 17:46:42] x264 [info]: mb B I16..4: 0.0% 0.9% 0.2% B16..8: 35.2% 21.7% 4.3% direct: 5.6% skip:32.0% L0:34.4% L1:40.8% BI:24.8%
---[Information] [12.08.2017 17:46:42] x264 [info]: 8x8 transform intra:79.2% inter:57.7%
---[Information] [12.08.2017 17:46:42] x264 [info]: coded y,uvDC,uvAC intra: 97.8% 0.3% 0.1% inter: 31.0% 0.2% 0.0%
---[Information] [12.08.2017 17:46:42] x264 [info]: i16 v,h,dc,p: 28% 18% 10% 45%
---[Information] [12.08.2017 17:46:42] x264 [info]: i8 v,h,dc,ddl,ddr,vr,hd,vl,hu: 12% 8% 5% 10% 14% 14% 12% 13% 12%
---[Information] [12.08.2017 17:46:42] x264 [info]: i4 v,h,dc,ddl,ddr,vr,hd,vl,hu: 12% 7% 3% 9% 15% 16% 13% 13% 12%
---[Information] [12.08.2017 17:46:42] x264 [info]: i8c dc,h,v,p: 79% 21% 0% 0%
---[Information] [12.08.2017 17:46:42] x264 [info]: Weighted P-Frames: Y:35.6% UV:2.1%
---[Information] [12.08.2017 17:46:42] x264 [info]: ref P L0: 42.4% 19.0% 14.9% 6.2% 4.3% 3.2% 2.7% 1.6% 1.4% 1.2% 1.2% 1.2% 0.5% 0.1%
---[Information] [12.08.2017 17:46:42] x264 [info]: ref B L0: 86.7% 7.0% 2.1% 1.2% 0.8% 0.7% 0.5% 0.4% 0.3% 0.2% 0.1%
---[Information] [12.08.2017 17:46:42] x264 [info]: ref B L1: 97.3% 2.7%
---[Information] [12.08.2017 17:46:42] x264 [info]: kb/s:1779.26
---[Information] [12.08.2017 17:46:42] encoded 127457 frames, 10.17 fps, 1779.26 kb/s
General
Unique ID : 252717801673902332183118068810450422345 (0xBE1FAD9CB3F91804B4739415EFEF4A49)
Complete name : F:\Ladri.di.biciclette.1948.BDRip.DD2.0.x264.-whip93.mkv
Format : Matroska
Format version : Version 4 / Version 2
File size : 1.46 GiB
Duration : 1h 28mn
Overall bit rate : 2 358 Kbps
Movie name : Похитители велосипедов | Ladri di biciclette (1948) - Release by whip93
Encoded date : UTC 2017-08-12 15:56:25
Writing application : mkvmerge v6.1.0 ('Old Devil') built on Mar 4 2013 09:10:42
Writing library : libebml v1.3.0 + libmatroska v1.4.0
Video
ID : 1
Format : AVC
Format/Info : Advanced Video Codec
Format profile : [email protected]
Format settings, CABAC : Yes
Format settings, ReFrames : 12 frames
Codec ID : V_MPEG4/ISO/AVC
Duration : 1h 28mn
Bit rate : 1 779 Kbps
Width : 640 pixels
Height : 480 pixels
Display aspect ratio : 4:3
Frame rate mode : Constant
Frame rate : 23.976 fps
Color space : YUV
Chroma subsampling : 4:2:0
Bit depth : 8 bits
Scan type : Progressive
Bits/(Pixel*Frame) : 0.242
Stream size : 1.07 GiB (74%)
Title : Encoded by whip93
Writing library : x264 core 148 r2638 7599210
Encoding settings : cabac=1 / ref=12 / deblock=1:-3:-3 / analyse=0x3:0x133 / me=umh / subme=11 / psy=1 / psy_rd=1.00:0.08 / mixed_ref=1 / me_range=64 / chroma_me=1 / trellis=2 / 8x8dct=1 / cqm=0 / deadzone=21,11 / fast_pskip=0 / chroma_qp_offset=-6 / threads=12 / lookahead_threads=3 / sliced_threads=0 / nr=0 / decimate=1 / interlaced=0 / bluray_compat=0 / constrained_intra=0 / bframes=13 / b_pyramid=2 / b_adapt=2 / b_bias=0 / direct=1 / weightb=1 / open_gop=0 / weightp=2 / keyint=240 / keyint_min=23 / scenecut=40 / intra_refresh=0 / rc_lookahead=60 / rc=2pass / mbtree=1 / bitrate=1779 / ratetol=1.0 / qcomp=0.72 / qpmin=0 / qpmax=69 / qpstep=4 / cplxblur=20.0 / qblur=0.5 / vbv_maxrate=50000 / vbv_bufsize=62500 / nal_hrd=none / filler=0 / ip_ratio=1.40 / aq=1:0.80
Language : Italian
Default : Yes
Forced : No
Color range : Limited
Color primaries : BT.709
Transfer characteristics : BT.709
Matrix coefficients : BT.709
Audio #1
ID : 2
Format : AC-3
Format/Info : Audio Coding 3
Mode extension : CM (complete main)
Format settings, Endianness : Big
Codec ID : A_AC3
Duration : 1h 28mn
Bit rate mode : Constant
Bit rate : 192 Kbps
Channel(s) : 2 channels
Channel positions : Front: L R
Sampling rate : 48.0 KHz
Compression mode : Lossy
Stream size : 122 MiB (8%)
Title : MVO (DVD Магия)
Language : Russian
Default : Yes
Forced : No
Audio #2
ID : 3
Format : AC-3
Format/Info : Audio Coding 3
Mode extension : CM (complete main)
Format settings, Endianness : Big
Codec ID : A_AC3
Duration : 1h 28mn
Bit rate mode : Constant
Bit rate : 192 Kbps
Channel(s) : 1 channel
Channel positions : Front: C
Sampling rate : 48.0 KHz
Compression mode : Lossy
Stream size : 122 MiB (8%)
Title : AVO (Сербин)
Language : Russian
Default : No
Forced : No
Audio #3
ID : 4
Format : AC-3
Format/Info : Audio Coding 3
Mode extension : CM (complete main)
Format settings, Endianness : Big
Codec ID : A_AC3
Duration : 1h 28mn
Bit rate mode : Constant
Bit rate : 192 Kbps
Channel(s) : 1 channel
Channel positions : Front: C
Sampling rate : 48.0 KHz
Compression mode : Lossy
Stream size : 122 MiB (8%)
Title : Original
Language : Italian
Default : No
Forced : No
Text
ID : 5
Format : UTF-8
Codec ID : S_TEXT/UTF8
Codec ID/Info : UTF-8 Plain Text
Title : Full
Language : Russian
Default : No
Forced : No
Menu
00:00:00.000 : en:A job for Ricci
00:05:04.921 : en:Wedding linens
00:10:42.100 : en:The fortune-teller
00:14:02.341 : en:Preparations
00:17:37.349 : en:Disaster on the job
00:21:46.472 : en:No help from the police
00:25:23.419 : en:Advice from a friend
00:29:54.127 : en:"A lightweight Fides, 1935 model"
00:34:51.258 : en:"We're all honest in Piazza Vittorio!"
00:38:31.894 : en:Rain on Sunday
00:42:34.929 : en:A sighting
00:46:03.010 : en:A plea in church
00:54:05.452 : en:An outburst and a scare
00:57:49.634 : en:Eating like kings
01:04:08.722 : en:Right away or never
01:08:38.698 : en:Confrontation
01:14:56.742 : en:Nothing to hide
01:19:33.979 : en:A desperate act
01:25:08.603 : en:Father and son

Скриншоты

-

If your ratio falls below 0.3, you will not be able to download Torrents! More about the rating.

[erzsebet.pl].t408.torrent
Torrent: Registered   [ 2017-12-02 16:42 ]

Download .torrent

Download

59 KB

Status: checked
Completed: 16 times
Size: 1.46 GB
terms.php

#1

02-Dec-2017 16:42

[Profile]  [PM] 
Display posts:    

You cannot post new topics in this forum
You cannot reply to topics in this forum
You cannot edit your posts in this forum
You cannot delete your posts in this forum
You cannot vote in polls in this forum
You cannot attach files in this forum
You can download files in this forum
User agreement
For copyright holders
Advertise on this site

Скачайте на халяву через торрент на трекере erzsebet.pl

!ATTENTION!
The site does not give electronic versions of products, and is engaged only in a collecting and cataloguing of the references sent and published at a forum by our readers. If you are the legal owner of any submitted material and do not wish that the reference to it was in our catalogue, contact us and we shall immediately remove her. Files for an exchange on tracker are given by users of a site, and the administration does not bear the responsibility for their maintenance. The request to not fill in the files protected by copyrights, and also files of the illegal maintenance!