Похищение человека / Sequestro di persona (Джанфранко Мингоцци / Gianfranco Mingozzi) [1968, Италия, драма, криминал, HDRip] VO (Horror Maker) + Sub Rus + Original Ita

DL-List and Torrent activity
Size:  1.51 GB   |    Registered:  2 years 9 months   |    Completed:  16 times
Seeders:  3  
 
   
 
 

erzsebet.org ®

Longevity:
2 years 9 months
Posts:
47596

[Quote] 

Похищение человека / Sequestro di persona Страна: Италия
Жанр: драма, криминал
Год выпуска: 1968
Продолжительность: 01:36:48
Перевод: Субтитры Антон Каптелов
Озвучивание: Одноголосый закадровый Horror Maker
Субтитры: русские
Оригинальная аудиодорожка: итальянский
Режиссер: Джанфранко Мингоцци / Gianfranco Mingozzi
В ролях: Франко Неро, Шарлотта Рэмплинг, Фрэнк Вулф, Эннио Бальбо, Пьерлуиджи Апра, Маргарита Лосано, Стеффен Захариас, Энрико Остерман, Энцо Робутти, Фабрицио Джовине
Описание: Кристина и Франческо путешествуют по Сардинии. В горах острова молодого человека похищают бандиты, а девушке приказывают держать язык за зубами. С родителей Франческо похитители требуют кругленькую сумму. Те решают не предавать дело огласке и начинают собирать деньги. Но Кристина, понимая, что ее друга не оставят в живых, решает обратиться в полицию...
Сэмпл: http://multi-up.com/1164510
Качество видео: HDRip (исходник Sequestro.di.Persona.1968.1080p.mkv с Карагарги)
Формат видео: AVI
Видео: 720x432 (1.67:1), 24 fps, XviD build 67 ~1837 kbps avg, 0.25 bit/pixel
Аудио 1: 48 kHz, AC3 Dolby Digital, 2/0 (L,R) ch, ~192 kbps русский
Аудио 2: 48 kHz, AC3 Dolby Digital, 2/0 (L,R) ch, ~192 kbps итальянский
Формат субтитров: softsub (SRT)
Релиз:
ВНИМАНИЕ: в связи с добавлением озвучки, торрент-файл перезалит 11.08.2017 в 13:30 по Мск.

MediaInfo

Формат : AVI
Формат/Информация : Audio Video Interleave
Размер файла : 1,51 Гбайт
Продолжительность : 1 ч. 36 м.
Общий поток : 2236 Кбит/сек
Программа кодирования : VirtualDubMod 1.5.10.2 (build 2540/release)
Библиотека кодирования : VirtualDubMod build 2540/release
Видео
Идентификатор : 0
Формат : MPEG-4 Visual
Профиль формата : Advanced [email protected]
Параметр BVOP формата : 2
Параметр QPel формата : Нет
Параметр GMC формата : Без точки перехода
Параметр матрицы формата : Default (MPEG)
Идентификатор кодека : XVID
Идентификатор кодека/Подсказка : XviD
Продолжительность : 1 ч. 36 м.
Битрейт : 1838 Кбит/сек
Ширина : 720 пикселей
Высота : 432 пикселя
Соотношение сторон : 5:3
Частота кадров : 24,000 кадра/сек
Цветовое пространство : YUV
Субдискретизация насыщенности : 4:2:0
Битовая глубина : 8 бит
Тип развёртки : Прогрессивная
Метод сжатия : С потерями
Бит/(Пиксели*Кадры) : 0.246
Размер потока : 1,24 Гбайт (82%)
Библиотека кодирования : XviD 67
Аудио #1
Идентификатор : 1
Формат : AC-3
Формат/Информация : Audio Coding 3
Расширение режима : CM (complete main)
Параметр Endianness формата : Big
Идентификатор кодека : 2000
Продолжительность : 1 ч. 36 м.
Вид битрейта : Постоянный
Битрейт : 192 Кбит/сек
Каналы : 2 канала
Расположение каналов : Front: L R
Частота : 48,0 КГц
Частота кадров : 31,250 кадров/сек (1536 spf)
Метод сжатия : С потерями
Размер потока : 133 Мбайт (9%)
Выравнивание : Разделение по промежуткам
Продолжительность промежутка : 42 мс. (1,00 видеокадр)
Время предзагрузки промежутка : 500 мс.
Аудио #2
Идентификатор : 2
Формат : AC-3
Формат/Информация : Audio Coding 3
Расширение режима : CM (complete main)
Параметр Endianness формата : Big
Идентификатор кодека : 2000
Продолжительность : 1 ч. 36 м.
Вид битрейта : Постоянный
Битрейт : 192 Кбит/сек
Каналы : 2 канала
Расположение каналов : Front: L R
Частота : 48,0 КГц
Частота кадров : 31,250 кадров/сек (1536 spf)
Метод сжатия : С потерями
Размер потока : 133 Мбайт (9%)
Выравнивание : Соединение по промежуткам
Продолжительность промежутка : 42 мс. (1,00 видеокадр)
Время предзагрузки промежутка : 512 мс.

Скриншот c названием фильма

Пример субтитров

12
00:03:43,545 --> 00:03:45,817
Франческо! Чего же ты ждешь?
13
00:03:46,537 --> 00:03:48,441
В конце концов, это просто овцы.
14
00:03:48,558 --> 00:03:51,387
- Заплати и поедем!
- Тише!
15
00:04:00,962 --> 00:04:03,433
Что с тобой не так?
Чего мы ждем?
16
00:04:04,197 --> 00:04:06,827
Помолчи! Я мог и ошибаться...
17
00:04:08,697 --> 00:04:10,233
Нет!
18
00:04:17,931 --> 00:04:19,874
Франческо Маррас!
19
00:04:22,240 --> 00:04:24,488
Садитесь в машину и уезжайте!
20
00:04:25,432 --> 00:04:27,336
Ее оставьте здесь!
21
00:04:35,379 --> 00:04:38,331
- Убирайся!
- Нет, давай сядем в машину и уедем!
22
00:04:38,527 --> 00:04:40,016
Делай, как говорят! Убирайся!
23
00:04:40,121 --> 00:04:42,035
Дождись другой машины
и никому ничего не говори!
24
00:04:42,136 --> 00:04:45,160
- Ты будешь в опасности, если сболтнешь!
- Франческо Маррас!
25
00:04:45,633 --> 00:04:47,114
Торопитесь!
26
00:04:49,690 --> 00:04:52,316
Я не понимаю! Чего они хотят?
Забрать тебя?
27
00:04:52,489 --> 00:04:55,061
Говори погромче! Они ведь
должны слышать, о чем мы говорим!
28
00:04:55,338 --> 00:04:58,560
- Чего они хотят? Забрать тебя?
- Да! Скорее, убирайся!
29
00:04:58,831 --> 00:05:01,015
- Но куда?
- Не задавай вопросов! Конец истории!
30
00:05:01,197 --> 00:05:04,103
Забудь все, что видела
или будет только хуже! Поверь мне!
31
00:05:04,238 --> 00:05:06,320
- Нет!
- Уходи же!
32
00:05:11,046 --> 00:05:12,647
Держи!
Огромное спасибо Антону Каптеловуза перевод, Horror Maker за озвучку и коллективу портала ВидеоДемонс (AlexKill, Solnce, abigail80, bvedargh, AlexNever, Oldfriend, Shangu) за организацию озвучки фильма!

If your ratio falls below 0.3, you will not be able to download Torrents! More about the rating.

[erzsebet.pl].t417.torrent
Torrent: Registered   [ 2017-12-02 16:42 ]

Download .torrent

Download

16 KB

Status: checked
Completed: 16 times
Size: 1.51 GB
terms.php

#1

02-Dec-2017 16:41

[Profile]  [PM] 
Display posts:    

You cannot post new topics in this forum
You cannot reply to topics in this forum
You cannot edit your posts in this forum
You cannot delete your posts in this forum
You cannot vote in polls in this forum
You cannot attach files in this forum
You can download files in this forum
User agreement
For copyright holders
Advertise on this site

Скачайте на халяву через торрент на трекере erzsebet.pl

!ATTENTION!
The site does not give electronic versions of products, and is engaged only in a collecting and cataloguing of the references sent and published at a forum by our readers. If you are the legal owner of any submitted material and do not wish that the reference to it was in our catalogue, contact us and we shall immediately remove her. Files for an exchange on tracker are given by users of a site, and the administration does not bear the responsibility for their maintenance. The request to not fill in the files protected by copyrights, and also files of the illegal maintenance!