Дом на 56-й улице / The House on 56th Street (Роберт Флори / Robert Florey) [1933, США, драма, DVDRip] VO + Original Eng

DL-List and Torrent activity
Size:  1.1 GB   |    Registered:  2 years 9 months   |    Completed:  16 times
Seeders:  3  
 
   
 
 

erzsebet.org ®

Longevity:
2 years 9 months
Posts:
47596

[Quote] 

Дом на 56-й улице / The House on 56th Street
Страна: США
Студия: Warner Bros. Pictures
Жанр: драма
Год выпуска: 1933
Продолжительность: 01:08:20
Перевод: Одноголосый закадровый - Алексей Багичев
Субтитры: нет
Оригинальная аудиодорожка: английский
Режиссер: Роберт Флори / Robert Florey
Композитор: Бернхард Каун / Bernhard Kaun
В ролях: Кэй Френсис / Kay Francis ... Peggy Martin
Рикардо Кортес / Ricardo Cortez ... Bill Blaine
Джин Рэймонд / Gene Raymond ... Monty Van Tyle
Джон Холлидэй / John Halliday ... Lyndon Fiske
Маргарет Линдсей / Margaret Lindsay ... Eleanor Van Tyle Burgess
Фрэнк МакХью / Frank McHugh ... Chester Hunt
Уильям «Стейдж» Бойд / William «Stage» Boyd (в титрах: William Boyd) ... Bonelli
Харди Олбрайт / Hardie Albright ... Henry Burgess
Шила Терри / Sheila Terry ... Dolly
Филип Рид / Phillip Reed ... Freddy
Филип Фэверсэм / Philip Faversham ... Gordon
Уолтер Уолкер / Walter Walker ... Dr. Wyman
Нелла Уолкер / Nella Walker ... Eleanor Van Tyle
Хелен Барклай / Helen Barclay ... Sextet Girl, в титрах не указана

Описание: 1905 год. Красавица танцовщица Пегги Мартин влюбляется в Монти Ван Тайла и разрывает отношения с бывшим любовником Линдоном Фиском. Пегги и Монти женятся и поселяются в уютном доме на 56-й улице. Их жизнь похожа на идиллию, у них растёт очаровательная дочь Элинор. Но счастье Пегги омрачает появление Линдона Фиска. Он сообщает, что смертельно болен, и хочет, чтобы Пегги вернулась к нему. Услышав отказ Пегги, Линдон грозится покончить с собой. Когда Пегги пытается отнять пистолет, тот случайно выстреливает, убивая Линдона. Пегги осуждена за непредумышленное убийство и приговорена к 20 годам. Когда Пегги выходит из тюрьмы, она узнаёт, что её муж Монти погиб во время Первой мировой войны, а Элинор все эти годы считала мать умершей. Пегги приходится начинать жизнь заново...--БОЛЬШОЕ СПАСИБО:
Работа со звуком и реавторинг DVD - AlekceyR76
Перевод и озвучивание фильма - Алексей Багичев
Также Большое Спасибо всем, кто принял участие в появлении перевода и озвучки к этому фильму:
Магда, Lafajet, jasenka, елена 22, yanaelisa, voostorg, sindzi, cementit, HippopotamusIV, борюська, duum100, spartakeynoir
--Сэмпл: https://www.sendspace.com/file/lm1u18
Качество видео: DVDRip
Формат видео: AVI
Видео: XviD, 624x480 (1.30:1), 23.976 fps, 1900 Kbps
Аудио 1: AC3, 48.0 KHz, 2 ch., 192 Kbps (русский одноголосый закадровый перевод) - Алексей Багичев
Аудио 2: AC3, 48.0 KHz, 2 ch., 192 Kbps (оригинальная английская звуковая дорожка)

MediaInfo

Общее
Полное имя : I:\раздачи\The House on 56th Street 1933 1.09\The House on 56th Street.avi
Формат : AVI
Формат/Информация : Audio Video Interleave
Размер файла : 1,10 Гбайт
Продолжительность : 1 ч. 8 м.
Общий поток : 2298 Кбит/сек
Программа кодирования : VirtualDubMod 1.5.10.3 | www.virtualdub-fr.org || (build 2550/release)
Библиотека кодирования : VirtualDubMod build 2550/release
Видео
Идентификатор : 0
Формат : MPEG-4 Visual
Профиль формата : Advanced [email protected]
Параметр BVOP формата : 2
Параметр QPel формата : Нет
Параметр GMC формата : Без точки перехода
Параметр матрицы формата : Default (H.263)
Идентификатор кодека : DX50
Идентификатор кодека/Подсказка : DivX 5
Продолжительность : 1 ч. 8 м.
Битрейт : 1900 Кбит/сек
Ширина : 624 пикселя
Высота : 480 пикселей
Соотношение сторон : 4:3
Частота кадров : 23,976 (24000/1001) кадра/сек
Цветовое пространство : YUV
Субдискретизация насыщенности : 4:2:0
Битовая глубина : 8 бит
Тип развёртки : Прогрессивная
Метод сжатия : С потерями
Бит/(Пиксели*Кадры) : 0.265
Размер потока : 928 Мбайт (83%)
Библиотека кодирования : XviD 73
Аудио #1
Идентификатор : 1
Формат : AC-3
Формат/Информация : Audio Coding 3
Параметр Endianness формата : Big
Идентификатор кодека : 2000
Продолжительность : 1 ч. 8 м.
Вид битрейта : Постоянный
Битрейт : 192 Кбит/сек
Каналы : 2 канала
Расположение каналов : Front: L R
Частота : 48,0 КГц
Частота кадров : 31,250 кадров/сек (1536 spf)
Битовая глубина : 16 бит
Метод сжатия : С потерями
Размер потока : 93,8 Мбайт (8%)
Выравнивание : Разделение по промежуткам
Продолжительность промежутка : 42 мс. (1,00 видеокадр)
Время предзагрузки промежутка : 500 мс.
ServiceKind/String : Complete Main
Аудио #2
Идентификатор : 2
Формат : AC-3
Формат/Информация : Audio Coding 3
Параметр Endianness формата : Big
Идентификатор кодека : 2000
Продолжительность : 1 ч. 8 м.
Вид битрейта : Постоянный
Битрейт : 192 Кбит/сек
Каналы : 2 канала
Расположение каналов : Front: L R
Частота : 48,0 КГц
Частота кадров : 31,250 кадров/сек (1536 spf)
Битовая глубина : 16 бит
Метод сжатия : С потерями
Размер потока : 93,8 Мбайт (8%)
Выравнивание : Разделение по промежуткам
Продолжительность промежутка : 42 мс. (1,00 видеокадр)
Время предзагрузки промежутка : 500 мс.
ServiceKind/String : Complete Main

If your ratio falls below 0.3, you will not be able to download Torrents! More about the rating.

[erzsebet.pl].t418.torrent
Torrent: Registered   [ 2017-12-02 16:42 ]

Download .torrent

Download

11 KB

Status: checked
Completed: 16 times
Size: 1.1 GB
terms.php

#1

02-Dec-2017 16:41

[Profile]  [PM] 
Display posts:    

You cannot post new topics in this forum
You cannot reply to topics in this forum
You cannot edit your posts in this forum
You cannot delete your posts in this forum
You cannot vote in polls in this forum
You cannot attach files in this forum
You can download files in this forum
User agreement
For copyright holders
Advertise on this site

Скачайте на халяву через торрент на трекере erzsebet.pl

!ATTENTION!
The site does not give electronic versions of products, and is engaged only in a collecting and cataloguing of the references sent and published at a forum by our readers. If you are the legal owner of any submitted material and do not wish that the reference to it was in our catalogue, contact us and we shall immediately remove her. Files for an exchange on tracker are given by users of a site, and the administration does not bear the responsibility for their maintenance. The request to not fill in the files protected by copyrights, and also files of the illegal maintenance!