Викинги / The Vikings (Ричард Флайшер / Richard Fleischer) [1958, США, боевик, приключения, BDRip] AVO (Алексей Медведев)

DL-List and Torrent activity
Size:  1.46 GB   |    Registered:  2 years 9 months   |    Completed:  16 times
Seeders:  4   Leechers:  1   Show peers in full details
 
   
 
 

erzsebet.org ®

Longevity:
2 years 9 months
Posts:
47596

[Quote] 

Викинги / The Vikings
Страна: США
Жанр: Боевик, приключения
Год выпуска: 1958
Продолжительность: 01:56:01
Перевод: Авторский (одноголосый закадровый) А. Медведев
Субтитры: Нет
Оригинальная аудиодорожка: Нет
Режиссер: Ричард Флайшер / Richard Fleischer
В ролях: Кирк Дуглас, Тони Кертис, Эрнест Боргнайн, Джанет Ли, Джеймс Дональд, Александр Нокс, Максин Одли, Фрэнк Тринг, Эйлин Вэй, Эдрик Коннор, Дэнди Николс, Пер Букхёй, Алмут Берг, Питер Кэпелл, Келли Кертис, Питер Дуглас, Жорж Гере, Анри Лопес, Марко Перрен, Поль Пребуа, Орсон Уэллс.
Описание: Тысяча лет назад скандинавские викинги во главе с королем Рагнаром высадились на побережье Англии в надежде захватить вожделенные земли. Движимые жаждой наживы, безжалостные воины опустошали Британские острова, сея смерть и разрушение.
Эйнар и Эрик были сводными братьями. Первый — сын короля викингов Рагнара, бесстрашный и непобедимый воин, которому не было равных в боях. Второй — его слуга и раб, ничего не знающий о своих родителях. Братья не подозревали о своем кровном родстве и с детства ненавидели друг друга. Многолетняя вражда достигла критической точки, когда оба влюбились в Уэльсскую принцессу Моргану…
Доп. информация: Релиз создан на замену этому релизу. В данной раздаче сравнительно лучше как видео, так и аудио.
За более качественную звуковую дорожку спасибо ALEKS KV.
Сэмпл: http://multi-up.com/1164385
Сравнительный сэмпл: http://multi-up.com/1165868
Качество видео: BDRip (исходник)
Формат видео: AVI
Видео: 720x304 (2,35:1), 23,976 fps, XviD 73 ~1603 kbps avg, 0.305 bit/pixel
Аудио: 48 kHz, AC3 Dolby Digital, 2.0 (L,R), ~192.00 kbps avg Алексей Медведев

MediaInfo

Общее
Полное имя : G:\Викинги (1958).avi
Формат : AVI
Формат/Информация : Audio Video Interleave
Размер файла : 1,46 Гбайт
Продолжительность : 1 ч. 56 м.
Общий поток : 1804 Кбит/сек
Программа кодирования : VirtualDubMod 1.5.10.2 (build 2540/release)
Библиотека кодирования : VirtualDubMod build 2540/release
Видео
Идентификатор : 0
Формат : MPEG-4 Visual
Профиль формата : Advanced [email protected]
Параметр BVOP формата : 1
Параметр QPel формата : Нет
Параметр GMC формата : Без точки перехода
Параметр матрицы формата : Выборочная
Идентификатор кодека : XVID
Идентификатор кодека/Подсказка : XviD
Продолжительность : 1 ч. 56 м.
Битрейт : 1603 Кбит/сек
Ширина : 720 пикселей
Высота : 304 пикселя
Соотношение сторон : 2,35:1
Частота кадров : 23,976 (24000/1001) кадра/сек
Частота кадров в оригинале : 23,976 (23976/1000) кадра/сек
Цветовое пространство : YUV
Субдискретизация насыщенности : 4:2:0
Битовая глубина : 8 бит
Тип развёртки : Прогрессивная
Метод сжатия : С потерями
Бит/(Пиксели*Кадры) : 0.305
Размер потока : 1,30 Гбайт (89%)
Библиотека кодирования : XviD 73
Аудио
Идентификатор : 1
Формат : AC-3
Формат/Информация : Audio Coding 3
Параметр Endianness формата : Big
Идентификатор кодека : 2000
Продолжительность : 1 ч. 56 м.
Вид битрейта : Постоянный
Битрейт : 192 Кбит/сек
Каналы : 2 канала
Расположение каналов : Front: L R
Частота : 48,0 КГц
Частота кадров : 31,250 кадров/сек (1536 SPF)
Битовая глубина : 16 бит
Метод сжатия : С потерями
Размер потока : 159 Мбайт (11%)
Выравнивание : Разделение по промежуткам
Продолжительность промежутка : 42 мс. (1,00 видеокадр)
Время предзагрузки промежутка : 500 мс.
ServiceKind/String : Complete Main

Скриншот c названием фильма

Скриншоты

Сравнение скриншотов

с этой раздачей
http://screenshotcomparison.com/comparison/114215

If your ratio falls below 0.3, you will not be able to download Torrents! More about the rating.

[erzsebet.pl].t420.torrent
Torrent: Registered   [ 2017-12-02 16:42 ]

Download .torrent

Download

15 KB

Status: checked
Completed: 16 times
Size: 1.46 GB
terms.php

#1

02-Dec-2017 16:41

[Profile]  [PM] 
Display posts:    

You cannot post new topics in this forum
You cannot reply to topics in this forum
You cannot edit your posts in this forum
You cannot delete your posts in this forum
You cannot vote in polls in this forum
You cannot attach files in this forum
You can download files in this forum
User agreement
For copyright holders
Advertise on this site

Скачайте на халяву через торрент на трекере erzsebet.pl

!ATTENTION!
The site does not give electronic versions of products, and is engaged only in a collecting and cataloguing of the references sent and published at a forum by our readers. If you are the legal owner of any submitted material and do not wish that the reference to it was in our catalogue, contact us and we shall immediately remove her. Files for an exchange on tracker are given by users of a site, and the administration does not bear the responsibility for their maintenance. The request to not fill in the files protected by copyrights, and also files of the illegal maintenance!