Портрет Дженни / Portrait of Jennie (Уильям Дитерле / William Dieterle) [1948, США, сновидческая драма, сказка, мистика, HDTVRip] VO (liosaa) + VO (Есарев) + Sub Rus, Eng + Original Eng

DL-List and Torrent activity
Size:  1.45 GB   |    Registered:  2 years 9 months   |    Completed:  16 times
Seeders:  3  
 
   
 
 

erzsebet.org ®

Longevity:
2 years 9 months
Posts:
47596

[Quote] 

Портрет Дженни / Portrait of Jennie
Страна: США
Жанр: сновидческая драма, сказка
Год выпуска: 1948
Продолжительность: 01:26:13
Перевод 1: Одноголосый закадровый liosaa
Перевод 2: Одноголосый закадровый (Есарев)
Субтитры: русские liosaa, английские
Оригинальная аудиодорожка: английский
Режиссер: Уильям Дитерле / William Dieterle
В ролях: Дженнифер Джонс, Джозеф Коттен, Итэл Бэрримор, Лиллиан Гиш, Сесил Келлауэй, Дэвид Уэйн...
Описание: ...Зимы в Нью-Йорке холодные. Но художнику не привыкать -- муки творчества похлеще любой непогоды. Полунищий пейзажист Адамс уныло бредёт по заснеженному парку после неудачного дня. Среди аллей он видит девочку, совсем одну, беззаботно играющую в снежки. Дженни -- так её зовут -- романтична и наивна, она весело сыплет загадками и обещает скоро повзрослеть, чтобы соединить с художником жизнь и судьбу... Редкие случайные встречи с ней наводят Адамса на странные мысли -- ему мерещится, что это посланница из иных эпох, преломляющая время в поисках утерянной в веках половинки. Пытаясь разгадать её тайну, а заодно и тайну творчества, написав лучший в своём роде портрет, наш герой попадает в чувственный и роковой водоворот страстей...
Уникальная сновидческая сказка, забытый шедевр Золотого века Голливуда -- предтеча таких сюрреальных авторских диковин, как "КАРНАВАЛ ДУШ" Хёрка Харви (1962) и "ТОЛЬКО ПОЕЗД, ТОЛЬКО НОЧЬ" Андре Дельво (1968).
Доп. информация: ...попытался объединить всё лучшее, что есть на трекере, в одном релизе, адаптированном под бытовые плееры, -- две одноголоски (по качеству скорее профессиональные, чем любительские), моя и Есарева + HDTV-картинка с чуть бОльшим наполнением кадра, чем на ДВД, и более мягкими, естественными очертаниями контуров (без белой пиксельной обводки) + мои же полные субтитры к фильму... надеюсь, это устроит как адептов картины, так и админов ресурса
*СЭМПЛ
*HDTVRip 720p (2.36 GB) источник рипа
*сравнение с ДВД-рипом Магды (1.46 GB)
*Ретро-хоррор в переводе**liosaa:
ВЕДЬМЫ: ИСТОРИЯ КОЛДОВСТВА (1922)
ВАМПИР: ВИДЕНИЕ АЛЛАНА ГРЕЯ (1932)
НЕПРОШЕНЫЕ ГОСТИ (1944)
ОСТРОВ МЕРТВЫХ (1945)
НОЧЬ ДЕМОНА (1957)
ГОРНИЧНАЯ (1960)

Качество видео: HDTVRip
Формат видео: AVI
Видео: XviD, 704x528 (4:3), 23.976 fps, 1806 Kbps
Аудио 1: AC3, 48.0 KHz, 2 ch., 192 Kbps (рус) liosaa
Аудио 2: AC3, 48.0 KHz, 2 ch., 192 Kbps (рус) Есарев
Аудио 3: AC3, 48.0 KHz, 2 ch., 192 Kbps (eng)
Формат субтитров: softsub (SRT)

MediaInfo

Формат : AVI
Формат/Информация : Audio Video Interleave
Размер файла : 1,45 Гбайт
Продолжительность : 1 ч. 26 м.
Общий поток : 2401 Кбит/сек
Программа кодирования : VirtualDubMod 1.5.10.2 (build 2540/release)
Библиотека кодирования : VirtualDubMod build 2540/release
Видео
Идентификатор : 0
Формат : MPEG-4 Visual
Профиль формата : Advanced [email protected]
Параметр BVOP формата : 1
Параметр QPel формата : Нет
Параметр GMC формата : Без точки перехода
Параметр матрицы формата : Default (MPEG)
Идентификатор кодека : XVID
Идентификатор кодека/Подсказка : XviD
Продолжительность : 1 ч. 26 м.
Битрейт : 1806 Кбит/сек
Ширина : 704 пикселя
Высота : 528 пикселей
Соотношение сторон : 4:3
Частота кадров : 23,976 (24000/1001) кадра/сек
Цветовое пространство : YUV
Субдискретизация насыщенности : 4:2:0
Битовая глубина : 8 бит
Тип развёртки : Прогрессивная
Метод сжатия : С потерями
Бит/(Пиксели*Кадры) : 0.203
Размер потока : 1,09 Гбайт (75%)
Библиотека кодирования : XviD 1.2.1 (UTC 2008-12-04)
Аудио #1
Идентификатор : 1
Формат : AC-3
Формат/Информация : Audio Coding 3
Параметр Endianness формата : Big
Идентификатор кодека : 2000
Продолжительность : 1 ч. 26 м.
Вид битрейта : Постоянный
Битрейт : 192 Кбит/сек
Каналы : 2 канала
Расположение каналов : Front: L R
Частота : 48,0 КГц
Частота кадров : 31,250 кадров/сек (1536 SPF)
Битовая глубина : 16 бит
Метод сжатия : С потерями
Размер потока : 118 Мбайт (8%)
Выравнивание : Разделение по промежуткам
Продолжительность промежутка : 42 мс. (1,00 видеокадр)
Время предзагрузки промежутка : 500 мс.
ServiceKind/String : Complete Main
Аудио #2
Идентификатор : 2
Формат : AC-3
Формат/Информация : Audio Coding 3
Параметр Endianness формата : Big
Идентификатор кодека : 2000
Продолжительность : 1 ч. 26 м.
Вид битрейта : Постоянный
Битрейт : 192 Кбит/сек
Каналы : 2 канала
Расположение каналов : Front: L R
Частота : 48,0 КГц
Частота кадров : 31,250 кадров/сек (1536 SPF)
Битовая глубина : 16 бит
Метод сжатия : С потерями
Размер потока : 118 Мбайт (8%)
Выравнивание : Разделение по промежуткам
Продолжительность промежутка : 42 мс. (1,00 видеокадр)
Время предзагрузки промежутка : 500 мс.
ServiceKind/String : Complete Main
Аудио #3
Идентификатор : 3
Формат : AC-3
Формат/Информация : Audio Coding 3
Параметр Endianness формата : Big
Идентификатор кодека : 2000
Продолжительность : 1 ч. 26 м.
Вид битрейта : Постоянный
Битрейт : 192 Кбит/сек
Каналы : 2 канала
Расположение каналов : Front: L R
Частота : 48,0 КГц
Частота кадров : 31,250 кадров/сек (1536 SPF)
Битовая глубина : 16 бит
Метод сжатия : С потерями
Размер потока : 118 Мбайт (8%)
Выравнивание : Разделение по промежуткам
Продолжительность промежутка : 42 мс. (1,00 видеокадр)
Время предзагрузки промежутка : 500 мс.
ServiceKind/String : Complete Main

Скриншоты

If your ratio falls below 0.3, you will not be able to download Torrents! More about the rating.

[erzsebet.pl].t421.torrent
Torrent: Registered   [ 2017-12-02 16:42 ]

Download .torrent

Download

15 KB

Status: checked
Completed: 16 times
Size: 1.45 GB
terms.php

#1

02-Dec-2017 16:41

[Profile]  [PM] 
Display posts:    

You cannot post new topics in this forum
You cannot reply to topics in this forum
You cannot edit your posts in this forum
You cannot delete your posts in this forum
You cannot vote in polls in this forum
You cannot attach files in this forum
You can download files in this forum
User agreement
For copyright holders
Advertise on this site

Скачайте на халяву через торрент на трекере erzsebet.pl

!ATTENTION!
The site does not give electronic versions of products, and is engaged only in a collecting and cataloguing of the references sent and published at a forum by our readers. If you are the legal owner of any submitted material and do not wish that the reference to it was in our catalogue, contact us and we shall immediately remove her. Files for an exchange on tracker are given by users of a site, and the administration does not bear the responsibility for their maintenance. The request to not fill in the files protected by copyrights, and also files of the illegal maintenance!