Дочь Б.Ф. / B.F.'s Daughter (Роберт З. Леонард / Robert Z. Leonard) [1948, США, драма, мелодрама, DVDRip] VO + Original Eng

DL-List and Torrent activity
Size:  1.6 GB   |    Registered:  2 years 9 months   |    Completed:  16 times
Seeders:  4  
 
   
 
 

erzsebet.org ®

Longevity:
2 years 9 months
Posts:
47596

[Quote] 

Дочь Б.Ф. / B.F.'s Daughter
Страна: США
Студия: Metro-Goldwyn-Mayer (MGM)
Жанр: драма, мелодрама
Год выпуска: 1948
Продолжительность: 01:48:07
Перевод: Одноголосый закадровый - Алексей Яковлев
Субтитры: нет
Оригинальная аудиодорожка: английский
Режиссер: Роберт З. Леонард / Robert Z. Leonard
Композиторы: Бронислав Капер / Bronislau Kaper,
Клиффорд Вон / Clifford Vaughan

В ролях: Барбара Стэнвик / Barbara Stanwyck ... «Polly» Fulton
Ван Хефлин / Van Heflin ... Thomas W. Brett
Чарльз Коберн / Charles Coburn ... B.F. Fulton
Ричард Харт / Richard Hart ... Robert S. Tasmin III
Кинен Уинн / Keenan Wynn ... Martin Delwyn Ainsley

Маргарет Линдсей / Margaret Lindsay ... «Apples» Sandler
Спринг Байинтон / Spring Byington ... Gladys Fulton
Маршалл Томпсон / Marshall Thompson ... The Sailor
Барбара Лаж / Barbara Laage ... Eugenia Taris
Томас Э. Брин / Thomas E. Breen ... Major Isaac Riley
Фред Нерни / Fred Nurney ... Jan

Описание: По мотивам одноименного романа Джона Филлипса Маркванда.
Состоятельная барышня Полли Фултон — единственная дочь богатого промышленника Б. Ф. Фултона. Девушка собирается выйти замуж за мужчину своей мечты — адвоката Роберта С. Тасмина III, но неожиданно встречает на своем пути интеллектуала Томаса Бретта. Он — ученый прогрессивных взглядов, и отношение мужчины к капитализму в корне отличается от мировоззрения богатой наследницы Полли. Но любовь превыше всего. Вскоре молодые люди женятся. Через этот брак Томас становится неотъемлемой частью ненавистного ему высшего общества и, осознав происходящее, приходит в ужас, направляя свой гнев на Полли...
Оскар, 1949 год
Номинации (1):
Лучшая работа художника по костюмам (ч/б фильмы)--Фильмография Барбары Стэнвик--БОЛЬШОЕ СПАСИБО:
Работа со звуком и реавторинг DVD - AlekceyR76
Перевод и озвучивание фильма - Алексей Яковлев
Также Большое Спасибо всем, кто принял участие в появлении перевода и озвучки к этому фильму:
Магда, Lafajet, jasenka, елена 22, yanaelisa, leoder, Ugo927, sindzi, voostorg, mangust1, GalaUkr, борюська, sapog1960, Simpun, duum100, митя
--Сэмпл: https://www.sendspace.com/file/szjxlv
Качество видео: DVDRip
Формат видео: AVI
Видео: XviD, 640x480 (1.33:1), 23.976 fps, 1727 Kbps
Аудио 1: AC3, 48.0 KHz, 2 ch., 192 Kbps (русский одноголосый закадровый перевод) - Алексей Яковлев
Аудио 2: AC3, 48.0 KHz, 2 ch., 192 Kbps (оригинальная английская звуковая дорожка, лежит отдельно)
Как подключить альтернативную (внешнюю) звуковую дорожку к видео при просмотре?
Как добавить отдельно лежащую аудиодорожку в .avi - файл? (см. "Программы для работы с контейнерами" - > "VirtualDub" или "AVI-Mux")

MediaInfo

AVI-файл:
Общее
Полное имя : I:\раздачи\BFs Daughter 1948\BFs Daughter.avi
Формат : AVI
Формат/Информация : Audio Video Interleave
Размер файла : 1,46 Гбайт
Продолжительность : 1 ч. 48 м.
Общий поток : 1928 Кбит/сек
Программа кодирования : VirtualDubMod 1.5.10.3 | www.virtualdub-fr.org || (build 2550/release)
Библиотека кодирования : VirtualDubMod build 2550/release
Видео
Идентификатор : 0
Формат : MPEG-4 Visual
Профиль формата : Advanced [email protected]
Параметр BVOP формата : 2
Параметр QPel формата : Нет
Параметр GMC формата : Без точки перехода
Параметр матрицы формата : Default (H.263)
Идентификатор кодека : DX50
Идентификатор кодека/Подсказка : DivX 5
Продолжительность : 1 ч. 48 м.
Битрейт : 1727 Кбит/сек
Ширина : 640 пикселей
Высота : 480 пикселей
Соотношение сторон : 4:3
Частота кадров : 23,976 (24000/1001) кадра/сек
Цветовое пространство : YUV
Субдискретизация насыщенности : 4:2:0
Битовая глубина : 8 бит
Тип развёртки : Прогрессивная
Метод сжатия : С потерями
Бит/(Пиксели*Кадры) : 0.234
Размер потока : 1,30 Гбайт (90%)
Библиотека кодирования : XviD 73
Аудио
Идентификатор : 1
Формат : AC-3
Формат/Информация : Audio Coding 3
Параметр Endianness формата : Big
Идентификатор кодека : 2000
Продолжительность : 1 ч. 48 м.
Вид битрейта : Постоянный
Битрейт : 192 Кбит/сек
Каналы : 2 канала
Расположение каналов : Front: L R
Частота : 48,0 КГц
Частота кадров : 31,250 кадров/сек (1536 spf)
Битовая глубина : 16 бит
Метод сжатия : С потерями
Размер потока : 148 Мбайт (10%)
Выравнивание : Разделение по промежуткам
Продолжительность промежутка : 42 мс. (1,00 видеокадр)
Время предзагрузки промежутка : 500 мс.
ServiceKind/String : Complete Main
английская оригинальная звуковая дорожка, лежит отдельно:
Общее
Полное имя : I:\раздачи\BFs Daughter 1948\BFs Daughter.ENG.ac3
Формат : AC-3
Формат/Информация : Audio Coding 3
Размер файла : 148 Мбайт
Продолжительность : 1 ч. 48 м.
Режим общего битрейта : Постоянный
Общий поток : 192 Кбит/сек
Аудио
Формат : AC-3
Формат/Информация : Audio Coding 3
Параметр Endianness формата : Big
Продолжительность : 1 ч. 48 м.
Вид битрейта : Постоянный
Битрейт : 192 Кбит/сек
Каналы : 2 канала
Расположение каналов : Front: L R
Частота : 48,0 КГц
Частота кадров : 31,250 кадров/сек (1536 spf)
Битовая глубина : 16 бит
Метод сжатия : С потерями
Размер потока : 148 Мбайт (100%)
ServiceKind/String : Complete Main

If your ratio falls below 0.3, you will not be able to download Torrents! More about the rating.

[erzsebet.pl].t422.torrent
Torrent: Registered   [ 2017-12-02 16:42 ]

Download .torrent

Download

17 KB

Status: checked
Completed: 16 times
Size: 1.6 GB
terms.php

#1

02-Dec-2017 16:41

[Profile]  [PM] 
Display posts:    

You cannot post new topics in this forum
You cannot reply to topics in this forum
You cannot edit your posts in this forum
You cannot delete your posts in this forum
You cannot vote in polls in this forum
You cannot attach files in this forum
You can download files in this forum
User agreement
For copyright holders
Advertise on this site

Скачайте на халяву через торрент на трекере erzsebet.pl

!ATTENTION!
The site does not give electronic versions of products, and is engaged only in a collecting and cataloguing of the references sent and published at a forum by our readers. If you are the legal owner of any submitted material and do not wish that the reference to it was in our catalogue, contact us and we shall immediately remove her. Files for an exchange on tracker are given by users of a site, and the administration does not bear the responsibility for their maintenance. The request to not fill in the files protected by copyrights, and also files of the illegal maintenance!