Почтальон / The Postman (Кевин Костнер / Kevin Costner) [1997, США, фантастика, постапокалипсис, HDRip] Dub (Варус-Видео)

DL-List and Torrent activity
Size:  1.46 GB   |    Registered:  2 years 9 months   |    Completed:  16 times
Seeders:  1  
 
   
 
 

erzsebet.org ®

Longevity:
2 years 9 months
Posts:
47596

[Quote] 

Почтальон / The Postman
Страна: США
Жанр: Фантастика, постапокалипсис
Год выпуска: 1997
Продолжительность: 02:57:49
Перевод: Профессиональный (дублированный) - Варус-Видео
Роли дублировали: Валерий Сторожик, Леонид Белозорович, Дмитрий Филимонов, Любовь Германова, Алексей Золотницкий
Режиссер: Кевин Костнер / Kevin Costner
В ролях: Кевин Костнер, Уилл Пэттон, Лоренц Тейт, Оливия Уильямс, Джеймс Руссо, Дэниэл Фон Барген, Том Петти, Скотт Бэйрстоу, Джованни Рибизи, Роберта Максвелл
Описание: Действие происходит в будущем. После глобальной войны и эпидемии выжившие остатки людей селятся разрозненными группами на территории бывших Соединенных Штатов Америки. Герой Кевина Костнера предпочитает жить одиночкой. Он скитается вместе со своим дрессированным мулом из селения в селение, давая представления из Шекспира. Правит всем тиран — генерал Бетлехем. Его армия собирает дань и рекрутов со всех, кто пытается жить мирно. Героя фильма насильно взяли в армию генерала, но он бежал и нашел в джипе скелет почтальона, надел его форму и взял сумку с письмами. Придя в один из лагерей, он представился почтальоном новых возрожденных Соединенных Штатов Америки. Люди поверили ему, также в городке он нашел свою любовь. Десятки последователей почтальона стали доставлять письма, что привело к вооруженному столкновению сил генерала с новой армией Свободы...
Сэмпл: http://multi-up.com/1101437
Формат видео: AVI
Качество видео: HDRip (BDRip.1080p)
Видео: XviD, 656x2720, 23.976fps, 1035kbps
Аудио: MPEG Layer 3, 2ch, 48000Hz, 128kbps

MediaInfo

Общее
Полное имя : Pochtalon.1997.D.HDRip.1400.CurHaJI.avi
Формат : AVI
Формат/Информация : Audio Video Interleave
Размер файла : 1,46 Гбайт
Продолжительность : 2 ч. 57 м.
Общий поток : 1172 Кбит/сек
Название фильма : Pochtalon.1997.D.HDRip.1400.CurHaJI
Программа кодирования : VirtualDubMod 1.5.10.3 | www.virtualdub-fr.org || (build 2550/release)
Библиотека кодирования : VirtualDub build 35491/release
Видео
Идентификатор : 0
Формат : MPEG-4 Visual
Профиль формата : Advanced [email protected]
Параметр BVOP формата : 1
Параметр QPel формата : Нет
Параметр GMC формата : Без точки перехода
Параметр матрицы формата : Выборочная
Идентификатор кодека : XVID
Идентификатор кодека/Подсказка : XviD
Продолжительность : 2 ч. 57 м.
Битрейт : 1035 Кбит/сек
Ширина : 656 пикселей
Высота : 272 пикселя
Соотношение сторон : 2,40:1
Частота кадров : 23,976 (24000/1001) кадра/сек
Частота кадров в оригинале : 23,976 (23976/1000) кадра/сек
Цветовое пространство : YUV
Субдискретизация насыщенности : 4:2:0
Битовая глубина : 8 бит
Тип развёртки : Прогрессивная
Метод сжатия : С потерями
Бит/(Пиксели*Кадры) : 0.242
Размер потока : 1,29 Гбайт (88%)
Библиотека кодирования : XviD 73
Аудио
Идентификатор : 1
Формат : MPEG Audio
Версия формата : Version 1
Профиль формата : Layer 3
Идентификатор кодека : 55
Идентификатор кодека/Подсказка : MP3
Продолжительность : 2 ч. 57 м.
Вид битрейта : Постоянный
Битрейт : 128 Кбит/сек
Каналы : 2 канала
Частота : 48,0 КГц
Метод сжатия : С потерями
Размер потока : 163 Мбайт (11%)
Выравнивание : Соединение по промежуткам
Продолжительность промежутка : 42 мс. (1,00 видеокадр)
Время предзагрузки промежутка : 504 мс.
Библиотека кодирования : LAME3.99r
Настройки программы : -m s -V 4 -q 2 -lowpass 17 -b 128

Скриншоты

If your ratio falls below 0.3, you will not be able to download Torrents! More about the rating.

[erzsebet.pl].t44.torrent
Torrent: Registered   [ 2017-12-02 15:58 ]

Download .torrent

Download

15 KB

Status: checked
Completed: 16 times
Size: 1.46 GB
terms.php

#1

02-Dec-2017 15:57

[Profile]  [PM] 
Display posts:    

You cannot post new topics in this forum
You cannot reply to topics in this forum
You cannot edit your posts in this forum
You cannot delete your posts in this forum
You cannot vote in polls in this forum
You cannot attach files in this forum
You can download files in this forum
User agreement
For copyright holders
Advertise on this site

Скачайте на халяву через торрент на трекере erzsebet.pl

!ATTENTION!
The site does not give electronic versions of products, and is engaged only in a collecting and cataloguing of the references sent and published at a forum by our readers. If you are the legal owner of any submitted material and do not wish that the reference to it was in our catalogue, contact us and we shall immediately remove her. Files for an exchange on tracker are given by users of a site, and the administration does not bear the responsibility for their maintenance. The request to not fill in the files protected by copyrights, and also files of the illegal maintenance!