Большой приз / Гран-при / Grand Prix (Джон Франкенхаймер / John Frankenheimer) [1966, США, спортивная драма, Screener] [Советская прокатная копия] Dub (Мосфильм)

DL-List and Torrent activity
Size:  2.06 GB   |    Registered:  2 years 9 months   |    Completed:  16 times
Seeders:  5  
 
   
 
 

erzsebet.org ®

Longevity:
2 years 9 months
Posts:
47596

[Quote] 

Большой приз / Гран-при / Grand Prix- Страна: США
Жанр: спортивная драма
Год выпуска: 1966
Продолжительность: 02:27:40-Перевод: Профессиональный (дублированный) - Киностудия "Мосфильм"
Субтитры: нет-Режиссер: Джон Франкенхаймер / John Frankenheimer
В ролях: Джеймс Гарнер, Ева-Мари Сент, Ив Монтан, Тоширо Мифунэ, Брайан Бедфорд, Джессика Уолтер, Антонио Сабато, Франсуаза Харди, Адольфо Чели, Клод Дофен...- | Релиз: -Описание: Личная жизнь и любовь четверых профессиональных автогонщиков, сыгранных Монтаном, Гарнером, Сабато и Бедфордом, перемежаются впечатляюще снятыми автогонками. Герои картины, рискуя жизнью, сражаются за победу в ряде важных европейских соревнований серии «Формула 1», включая Гран При Монако и Монте Карло.-Семпл: http://sendfile.su/1353313-Тип релиза: Screener
Контейнер: AVI
Видео: 720x304 (2.37:1), 25 fps, XviD build 73 ~1729 kbps avg, 0.32 bit/pixel
Аудио: Русский, 48 kHz, AC3 Dolby Digital, 2/0 (L,R) ch, ~256 kbps

MediaInfo

General
Complete name : Большой приз 1966 Dub Мосфильм.avi
Format : AVI
Format/Info : Audio Video Interleave
Format profile : OpenDML
File size : 2.06 GiB
Duration : 2 h 27 min
Overall bit rate : 1 993 kb/s
Writing application : VirtualDubMod 1.5.10.2 (build 2542/release)
Writing library : VirtualDubMod build 2542/release
Video
ID : 0
Format : MPEG-4 Visual
Format profile : Advanced [email protected]
Format settings, BVOP : 2
Format settings, QPel : No
Format settings, GMC : No warppoints
Format settings, Matrix : Default (H.263)
Codec ID : XVID
Codec ID/Hint : XviD
Duration : 2 h 27 min
Bit rate : 1 724 kb/s
Width : 720 pixels
Height : 304 pixels
Display aspect ratio : 2.35:1
Frame rate : 25.000 FPS
Color space : YUV
Chroma subsampling : 4:2:0
Bit depth : 8 bits
Scan type : Progressive
Compression mode : Lossy
Bits/(Pixel*Frame) : 0.315
Stream size : 1.78 GiB (87%)
Writing library : XviD 73
Audio
ID : 1
Format : AC-3
Format/Info : Audio Coding 3
Format settings, Endianness : Big
Codec ID : 2000
Duration : 2 h 27 min
Bit rate mode : Constant
Bit rate : 256 kb/s
Channel(s) : 2 channels
Channel positions : Front: L R
Sampling rate : 48.0 kHz
Frame rate : 31.250 FPS (1536 SPF)
Bit depth : 16 bits
Compression mode : Lossy
Stream size : 270 MiB (13%)
Alignment : Split accross interleaves
Interleave, duration : 40 ms (1.00 video frame)
Interleave, preload duration : 500 ms
Service kind : Complete Main

Журнал "Спутник кинозрителя" №9, 1968 о фильме "Большой приз"

If your ratio falls below 0.3, you will not be able to download Torrents! More about the rating.

[erzsebet.pl].t449.torrent
Torrent: Registered   [ 2017-12-02 16:42 ]

Download .torrent

Download

11 KB

Status: checked
Completed: 16 times
Size: 2.06 GB
terms.php

#1

02-Dec-2017 16:41

[Profile]  [PM] 
Display posts:    

You cannot post new topics in this forum
You cannot reply to topics in this forum
You cannot edit your posts in this forum
You cannot delete your posts in this forum
You cannot vote in polls in this forum
You cannot attach files in this forum
You can download files in this forum
User agreement
For copyright holders
Advertise on this site

Скачайте на халяву через торрент на трекере erzsebet.pl

!ATTENTION!
The site does not give electronic versions of products, and is engaged only in a collecting and cataloguing of the references sent and published at a forum by our readers. If you are the legal owner of any submitted material and do not wish that the reference to it was in our catalogue, contact us and we shall immediately remove her. Files for an exchange on tracker are given by users of a site, and the administration does not bear the responsibility for their maintenance. The request to not fill in the files protected by copyrights, and also files of the illegal maintenance!