Вокзал "Юнион Депо" / Union Depot (Альфред Э. Грин / Alfred E. Green) [1932, США, драма, мелодрама, комедия, DVDRip] VO + Original Eng

DL-List and Torrent activity
Size:  1.1 GB   |    Registered:  2 years 9 months   |    Completed:  16 times
Seeders:  7  
 
   
 
 

erzsebet.org ®

Longevity:
2 years 9 months
Posts:
47596

[Quote] 

Вокзал "Юнион Депо" / Union Depot
Страна: США
Студия: First National Pictures Inc.
Жанр: драма, мелодрама, комедия
Год выпуска: 1932
Продолжительность: 01:07:07
Перевод: Одноголосый закадровый - Дмитрий Есарев
Субтитры: нет
Оригинальная аудиодорожка: английский
Режиссер: Альфред Э. Грин / Alfred E. Green
В ролях: Дуглас Фэрбенкс мл. / Douglas Fairbanks Jr. ... Chick Miller
Джоан Блонделл / Joan Blondell ... Ruth Collins
Гай Кибби / Guy Kibbee ... Scrap Iron Scratch
Алан Хейл / Alan Hale ... The Baron - aka Bushy Sloan
Дэвид Ландау / David Landau ... Kendall
Джордж Розенер / George Rosener ... Dr. Bernardi
Эрл Фокс / Earle Foxe ... Jim Parker
Фрэнк МакХью / Frank McHugh ... The Drunk
Эдриэнн Дор / Adrienne Dore ... Sadie
Хупер Этчли / Hooper Atchley ... Station Agent Having No Available Berths, в титрах не указан
Ирвинг Бэйкон / Irving Bacon ... Depot Hotel Waiter, в титрах не указан
Лилиан Бонд / Lilian Bond ... Actress on Train, в титрах не указана

Описание: Среди путешественников различного происхождения, которые встречаются и взаимодействуют в столичном железнодорожном вокзале Юнион Депо на протяжении одной ночи, появляются Чик Миллер и его друг Скрап Айрон, которые освобождены из тюрьмы после отбывания срока за бродяжничество. Случайно Чик поднимает оставленный кем-то из путешественников чемодан, в котором находит набор для бритья, костюм и банкноты в кармане пиджака. Не веря своей удаче, он покупает себе хорошую еду. Насладившись обедом и будучи в благодушном настроении, Чик решил найти себе подружку среди девушек, которых полно на вокзале. Ему приглянулась Рут Коллинз. Когда Чик понимает, что Рут является одной из жертв Депрессии и у неё нет возможности попасть в Солт-Лейк-Сити, где она имеет возможность найти работу, он решает помочь девушке...--Фильмография Дугласа Фэрбенкса мл.--БОЛЬШОЕ СПАСИБО:
Работа со звуком и реавторинг DVD - AlekceyR76
Перевод и озвучивание фильма - Дмитрий Есарев
Также Большое Спасибо всем, кто принял участие в появлении перевода и озвучки к этому фильму:
Магда, Lafajet, jasenka, елена 22, yanaelisa, cementit, voostorg, surzhoks, leoder, HippopotamusIV, sindzi, борюська, sapog1960, mangust1
--Сэмпл: https://www.sendspace.com/file/tm0okc
Качество видео: DVDRip
Формат видео: AVI
Видео: XviD, 640x480 (1.33:1), 23.976 fps, 1941 Kbps
Аудио 1: AC3, 48.0 KHz, 2 ch., 192 Kbps (русский одноголосый закадровый перевод) - Дмитрий Есарев
Аудио 2: AC3, 48.0 KHz, 2 ch., 192 Kbps (оригинальная английская звуковая дорожка)

MediaInfo

Общее
Полное имя : R:\РАЗДАЧИ\РИПЫ\Union Depot 1932 1.09\Union Depot.avi
Формат : AVI
Формат/Информация : Audio Video Interleave
Размер файла : 1,10 Гбайт
Продолжительность : 1 ч. 7 м.
Общий поток : 2339 Кбит/сек
Программа кодирования : VirtualDubMod 1.5.10.3 | www.virtualdub-fr.org || (build 2550/release)
Библиотека кодирования : VirtualDubMod build 2550/release
Видео
Идентификатор : 0
Формат : MPEG-4 Visual
Профиль формата : Advanced [email protected]
Параметр BVOP формата : 2
Параметр QPel формата : Нет
Параметр GMC формата : Без точки перехода
Параметр матрицы формата : Default (H.263)
Идентификатор кодека : DX50
Идентификатор кодека/Подсказка : DivX 5
Продолжительность : 1 ч. 7 м.
Битрейт : 1941 Кбит/сек
Ширина : 640 пикселей
Высота : 480 пикселей
Соотношение сторон : 4:3
Частота кадров : 23,976 (24000/1001) кадра/сек
Цветовое пространство : YUV
Субдискретизация насыщенности : 4:2:0
Битовая глубина : 8 бит
Тип развёртки : Прогрессивная
Метод сжатия : С потерями
Бит/(Пиксели*Кадры) : 0.263
Размер потока : 932 Мбайт (83%)
Библиотека кодирования : XviD 73
Аудио #1
Идентификатор : 1
Формат : AC-3
Формат/Информация : Audio Coding 3
Параметр Endianness формата : Big
Идентификатор кодека : 2000
Продолжительность : 1 ч. 7 м.
Вид битрейта : Постоянный
Битрейт : 192 Кбит/сек
Каналы : 2 канала
Расположение каналов : Front: L R
Частота : 48,0 КГц
Частота кадров : 31,250 кадров/сек (1536 spf)
Битовая глубина : 16 бит
Метод сжатия : С потерями
Размер потока : 92,2 Мбайт (8%)
Выравнивание : Разделение по промежуткам
Продолжительность промежутка : 42 мс. (1,00 видеокадр)
Время предзагрузки промежутка : 500 мс.
ServiceKind/String : Complete Main
Аудио #2
Идентификатор : 2
Формат : AC-3
Формат/Информация : Audio Coding 3
Параметр Endianness формата : Big
Идентификатор кодека : 2000
Продолжительность : 1 ч. 7 м.
Вид битрейта : Постоянный
Битрейт : 192 Кбит/сек
Каналы : 2 канала
Расположение каналов : Front: L R
Частота : 48,0 КГц
Частота кадров : 31,250 кадров/сек (1536 spf)
Битовая глубина : 16 бит
Метод сжатия : С потерями
Размер потока : 92,2 Мбайт (8%)
Выравнивание : Разделение по промежуткам
Продолжительность промежутка : 42 мс. (1,00 видеокадр)
Время предзагрузки промежутка : 500 мс.
ServiceKind/String : Complete Main

If your ratio falls below 0.3, you will not be able to download Torrents! More about the rating.

[erzsebet.pl].t451.torrent
Torrent: Registered   [ 2017-12-02 16:42 ]

Download .torrent

Download

11 KB

Status: checked
Completed: 16 times
Size: 1.1 GB
terms.php

#1

02-Dec-2017 16:41

[Profile]  [PM] 
Display posts:    

You cannot post new topics in this forum
You cannot reply to topics in this forum
You cannot edit your posts in this forum
You cannot delete your posts in this forum
You cannot vote in polls in this forum
You cannot attach files in this forum
You can download files in this forum
User agreement
For copyright holders
Advertise on this site

Скачайте на халяву через торрент на трекере erzsebet.pl

!ATTENTION!
The site does not give electronic versions of products, and is engaged only in a collecting and cataloguing of the references sent and published at a forum by our readers. If you are the legal owner of any submitted material and do not wish that the reference to it was in our catalogue, contact us and we shall immediately remove her. Files for an exchange on tracker are given by users of a site, and the administration does not bear the responsibility for their maintenance. The request to not fill in the files protected by copyrights, and also files of the illegal maintenance!