Корабли викингов / The Long Ships (Джек Кардифф / Jack Cardiff) [1964, Великобритания, Югославия, исторический, приключения, HDRip] MVO (DVD Магия)

Reply to topic
DL-List and Torrent activity
Size:  1.39 GB   |    Registered:  3 years 1 month   |    Completed:  16 times

Seeder not seen: Never

 
   
 
 
Author Message

erzsebet.org ®

Longevity: 3 years 1 month

Posts: 47596

Post 02-Dec-2017 16:41

[Quote]

Корабли викингов / The Long Ships
Страна: Великобритания, Югославия
Жанр: исторический, приключения
Год выпуска: 1964
Продолжительность: 02:05:45
Перевод: Профессиональный (многоголосый закадровый) DVD Магия
Субтитры: нет
Режиссер: Джек Кардифф / Jack Cardiff
В ролях: Ричард Уидмарк, Сидни Пуатье, Расс Тэмблин, Розанна Скьяффино, Оскар Хомолка, Эдвард Джадд, Лайонел Джеффрис, Беба Лончар, Клиффорд Эванс
Описание: Скандинавский храбрец Рольф вместе со своим братом Ормом на драккаре, полном воинов отправляются на поиски огромного золотого колокола, столь желаемого Мансухом, мавританским принцем, готовым заплатить за находку любую цену....
Сэмпл: https://yadi.sk/i/riXfHa0Z3Li2RZ
Качество видео: HDRip (Исходник The.Long.Ships.1964.1080p.nnm_video.mkv)
Формат видео: AVI
Видео: XviD 73, 704x320, (2,02:1), 23,976 fps, 1386 Кбит/с, 8 бит, 0.26 bit/pixel
Аудио: Русский (АС3, 2 ch (Front: L R), 48,0 KHz, 192 Kbps)

MediaInfo

Общее
Полное имя : E:\Сравнение\Корабли викингов (Исторический, приключения 1964 год).avi
Формат : AVI
Формат/Информация : Audio Video Interleave
Размер файла : 1,39 Гбайт
Продолжительность : 2 ч. 5 м.
Общий поток : 1587 Кбит/сек
Программа кодирования : VirtualDubMod 1.5.10.3 | www.virtualdub-fr.org || (build 2550/release)
Библиотека кодирования : VirtualDubMod build 2550/release
Видео
Идентификатор : 0
Формат : MPEG-4 Visual
Профиль формата : Advanced [email protected]
Параметр BVOP формата : 2
Параметр QPel формата : Нет
Параметр GMC формата : Без точки перехода
Параметр матрицы формата : Выборочная
Идентификатор кодека : XVID
Идентификатор кодека/Подсказка : XviD
Продолжительность : 2 ч. 5 м.
Битрейт : 1386 Кбит/сек
Ширина : 704 пикселя
Высота : 320 пикселей
Соотношение сторон : 2,2:1
Частота кадров : 23,976 (23976/1000) кадра/сек
Цветовое пространство : YUV
Субдискретизация насыщенности : 4:2:0
Битовая глубина : 8 бит
Тип развёртки : Прогрессивная
Метод сжатия : С потерями
Бит/(Пиксели*Кадры) : 0.257
Размер потока : 1,22 Гбайт (87%)
Библиотека кодирования : XviD 73
Аудио
Идентификатор : 1
Формат : AC-3
Формат/Информация : Audio Coding 3
Расширение режима : CM (complete main)
Параметр Endianness формата : Big
Идентификатор кодека : 2000
Продолжительность : 2 ч. 5 м.
Вид битрейта : Постоянный
Битрейт : 192 Кбит/сек
Каналы : 2 канала
Расположение каналов : Front: L R
Частота : 48,0 КГц
Частота кадров : 31,250 кадров/сек (1536 spf)
Метод сжатия : С потерями
Размер потока : 173 Мбайт (12%)
Выравнивание : Разделение по промежуткам
Продолжительность промежутка : 42 мс. (1,00 видеокадр)
Время предзагрузки промежутка : 500 мс.

Скриншот c названием фильма

Скриншоты

If your ratio falls below 0.3, you will not be able to download Torrents! More about the rating.

[erzsebet.pl].t453.torrent
Torrent: Registered [ 2017-12-02 16:42 ] · DE8D152B5F8D4C6605269FB4109580444616CC5E

Download .torrent

Download

14 KB

Status: checked
Completed: 16 times
Size: 1.39 GB
terms.php
[Profile] [PM]
Display posts:    
Reply to topic

Current time is: 25-Jan 17:40

All times are UTC ± 0



You cannot post new topics in this forum
You cannot reply to topics in this forum
You cannot edit your posts in this forum
You cannot delete your posts in this forum
You cannot vote in polls in this forum
You cannot attach files in this forum
You can download files in this forum