Как украсть миллион / How to Steal a Million (Уильям Уайлер / William Wyler) [1966, США, Мелодрама, комедия, криминал, TVRip-AVC] [Советская прокатная версия] Dub (к/с "Мосфильм")

DL-List and Torrent activity
Size:  1.42 GB   |    Registered:  2 years 9 months   |    Completed:  16 times
Seeders:  4  
 
   
 
 

erzsebet.org ®

Longevity:
2 years 9 months
Posts:
47596

[Quote] 

Как украсть миллион / How to Steal a Million / [Советская прокатная версия]
Жанр: Мелодрама, комедия, криминал
Страна: США
Студия: World Wide Productions
Год выпуска: 1966
Продолжительность: 01:56:57
Перевод: Профессиональный (дублированный) - к/с "Мосфильм"
Субтитры: нет
Режиссер: Уильям Уайлер / William Wyler
В ролях:
Одри Хепберн / Audrey Hepburn ... Nicole - дублирует Надежда Румянцева
Питер О’Тул / Peter O'Toole ... Simon Dermott - Феликс Яворский
Илай Уоллак / Eli Wallach ... Davis Leland - Алексей Алексеев
Хью Гриффит / Hugh Griffith ... Bonnet - Зиновий Гердт
Шарль Буайе / Charles Boyer ... DeSolnay - Владимир Балашов
Фернан Гравей / Fernand Gravey ... Grammont - Сергей Курилов
Марсель Далио / Marcel Dalio ... Senor Paravideo - Артем Карапетян
Жак Марен / Jacques Marin ... Chief Guard - Юрий Саранцев
Мусташ / Moustache ... Guard
Роже Тревиль / Roger Tréville... Auctioneer - Александр Белявский
Эдвард Малин / Edward Malin ... Insurance Clerk - Георгий Вицин
Берт Бертрам / Bert Bertram ... Marcel
Георг Стэнфорд Браун / Georg Stanford Brown ... Waiter
Луиза Шевалье / Louise Chevalier ... Cleaning Woman
Реми Лонжа / Rémy Longa ... Young Man
Описание: Дочь крупного мошенника, занимающегося подделкой предметов искусства, ранит злоумышленника, проникшего в их дом. Эта история получает неожиданное продолжение и дочь миллионера сама становится воровкой...
Образцово-показательная голливудская комедия для самого изысканного зрителя, с гениальными актерами.
Дополнительная информация: Релиз:
* Запись со спутника выполнена Saulius Kintera / Luxembourg /, который предоставил видео, за что приносим ему Благодарность!
Большое спасибо за помощь в подготовке релиза - trecioka!
Фильм дублирован на киностудии «Мосфильм» в 1974 году.
Режиссёр дубляжа: Евгений Алексеев
Звукооператор: В.Кузнецов
Русский синхронный текст: Зинаида Целиковская
Редактор: Лидия Балашова
Роли дублировали: Надежда Румянцева, Феликс Яворский, Алексей Алексеев, Зиновий Гердт, Владимир Балашов, Сергей Курилов, Артем Карапетян, Юрий Саранцев, Александр Белявский, Георгий Вицин
IMDb = 7,6/10 (19 197) - http://www.imdb.com/title/tt0060522/
Кинопоиск = 8.228 (54 789) - https://www.kinopoisk.ru/film/10156/
ВНИМАНИЕ!!! РИП ФОРМАТА mkv (кодек H.264) ВОСПРОИЗВОДИТСЯ НЕ НА ВСЕХ БЫТОВЫХ ВИДЕОПЛЕЕРАХ!!!
ПРОСЬБА к СКАЧАВШИМ. НЕ УХОДИТЕ С РАЗДАЧИ, ПОМОГИТЕ ДРУГИМ СКАЧАТЬ!!!
Качество видео: TVRip-AVC
Формат видео: MKV
Видео: AVC (H264), [email protected] (1.33:1) 25 fps, 1550 kbps, 0.161 Bits/Pixel
Аудио: AC3, 48 kHz, stereo (2 ch), 192 kbps

MediaInfo

General
Unique ID : 244956412057984513775609108768958922833 (0xB848E38F4AC37C0E8785091F19BB4051)
Complete name : D:\torrents\How to Steal a Million (1966, rus_dub).mkv
Format : Matroska
Format version : Version 4 / Version 2
File size : 1.42 GiB
Duration : 1 h 56 min
Overall bit rate : 1 743 kb/s
Encoded date : UTC 2017-07-31 03:06:27
Writing application : mkvmerge v14.0.0 ('Flow') 64bit
Writing library : libebml v1.3.4 + libmatroska v1.4.5
Video
ID : 1
Format : AVC
Format/Info : Advanced Video Codec
Format profile : [email protected]
Format settings, CABAC : Yes
Format settings, ReFrames : 16 frames
Codec ID : V_MPEG4/ISO/AVC
Duration : 1 h 56 min
Bit rate : 1 550 kb/s
Width : 688 pixels
Height : 560 pixels
Display aspect ratio : 4:3
Original display aspect ratio : 1.229
Frame rate mode : Constant
Frame rate : 25.000 FPS
Color space : YUV
Chroma subsampling : 4:2:0
Bit depth : 8 bits
Scan type : Progressive
Bits/(Pixel*Frame) : 0.161
Stream size : 1.27 GiB (89%)
Writing library : x264 core 130 r2273 b3065e6
Encoding settings : cabac=1 / ref=16 / deblock=1:0:0 / analyse=0x3:0x133 / me=umh / subme=10 / psy=1 / psy_rd=1.00:0.00 / mixed_ref=1 / me_range=24 / chroma_me=1 / trellis=2 / 8x8dct=1 / cqm=0 / deadzone=21,11 / fast_pskip=1 / chroma_qp_offset=-2 / threads=48 / lookahead_threads=4 / sliced_threads=0 / nr=0 / decimate=1 / interlaced=0 / bluray_compat=0 / constrained_intra=0 / bframes=8 / b_pyramid=2 / b_adapt=2 / b_bias=0 / direct=3 / weightb=1 / open_gop=0 / weightp=2 / keyint=250 / keyint_min=25 / scenecut=40 / intra_refresh=0 / rc_lookahead=60 / rc=2pass / mbtree=1 / bitrate=1550 / ratetol=1.0 / qcomp=0.60 / qpmin=0 / qpmax=69 / qpstep=4 / cplxblur=20.0 / qblur=0.5 / ip_ratio=1.40 / aq=1:1.00
Language : English
Default : Yes
Forced : No
Audio
ID : 2
Format : AC-3
Format/Info : Audio Coding 3
Mode extension : CM (complete main)
Format settings, Endianness : Big
Codec ID : A_AC3
Duration : 1 h 56 min
Bit rate mode : Constant
Bit rate : 192 kb/s
Channel(s) : 2 channels
Channel positions : Front: L R
Sampling rate : 48.0 kHz
Frame rate : 31.250 FPS (1536 spf)
Bit depth : 16 bits
Compression mode : Lossy
Stream size : 161 MiB (11%)
Language : Russian
Default : Yes
Forced : No

Скриншот c названием фильма

МОИ РАЗДАЧИ НА РУТРЕКЕРЕ: http://erzsebet.org/forum/tracker.php?rid=27390064

If your ratio falls below 0.3, you will not be able to download Torrents! More about the rating.

[erzsebet.pl].t455.torrent
Torrent: Registered   [ 2017-12-02 16:42 ]

Download .torrent

Download

15 KB

Status: checked
Completed: 16 times
Size: 1.42 GB
terms.php

#1

02-Dec-2017 16:41

[Profile]  [PM] 
Display posts:    

You cannot post new topics in this forum
You cannot reply to topics in this forum
You cannot edit your posts in this forum
You cannot delete your posts in this forum
You cannot vote in polls in this forum
You cannot attach files in this forum
You can download files in this forum
User agreement
For copyright holders
Advertise on this site

Скачайте на халяву через торрент на трекере erzsebet.pl

!ATTENTION!
The site does not give electronic versions of products, and is engaged only in a collecting and cataloguing of the references sent and published at a forum by our readers. If you are the legal owner of any submitted material and do not wish that the reference to it was in our catalogue, contact us and we shall immediately remove her. Files for an exchange on tracker are given by users of a site, and the administration does not bear the responsibility for their maintenance. The request to not fill in the files protected by copyrights, and also files of the illegal maintenance!