Уэллс Фарго / Wells Fargo (Фрэнк Ллойд / Frank Lloyd) [1937, США, вестерн, история, DVDRip] AVO (Андрей Дольский) + Original Eng

DL-List and Torrent activity
Size:  1.48 GB   |    Registered:  2 years 9 months   |    Completed:  16 times
Seeders:  3   Leechers:  1   Show peers in full details
 
   
 
 

erzsebet.org ®

Longevity:
2 years 9 months
Posts:
47596

[Quote] 

Уэллс Фарго / Wells Fargo

Слоган: «TOGETHER THEY BUILD A CONTINENT! He lives the magnificent adventure that saves a country and she shares the adventures of the man she loves!»
Страна: США
Студия: Paramount Pictures
Жанр: вестерн, история
Год выпуска: 1937
Продолжительность: 01:36:45
Перевод: Авторский (одноголосый закадровый) - Андрей Дольский
Субтитры: нет
Оригинальная аудиодорожка: английский
Режиссер: Фрэнк Ллойд / Frank Lloyd
В ролях: Джоэл МакКри, Боб Барнс, Фрэнсис Ди, Ллойд Нолан, Генри О’Нилл, Мэри Нэш, Ральф Морган, Джонни Мак Браун, Портер Холл, Джек Кларк ...
Описание: История из времен создания знаменитой банковской компании "Уэллс Фарго" в 1850-х годах: погонщик дилижансов, период от "золотой лихорадки" в Калифорнии до Гражданской войны, разумеется, немного авторских домыслов, и всё в одном флаконе. "Вместе они покорят континент! Его жизнь - в череде увлекательных приключений, которые в результате соединят в одно целое страну, а она готова разделить эти приключения с человеком, которого любит!
Доп. информация: Рип сделан из этого DVD5-- --Фильм переведен и озвучен специально для: 7букв Вестерн / группа Джесси Джеймса
Отдельная благодарность Alassea за предоставленную русскую звуковую дорожку.--Wells Fargo_(1937)_DVDRip_Sample_.avi--Качество видео: DVDRip
Формат видео: AVI
Видео: 608x464 (1.31:1), 23.976 fps, XviD build 73 ~1791 kbps avg, 0.26 bit/pixel
Аудио 1: 48 kHz, AC3 Dolby Digital, 2/0 (L,R) ch, ~192 kbps, Русский
Аудио 2: 48 kHz, AC3 Dolby Digital, 2/0 (L,R) ch, ~192 kbps, Английский

AviInfo

File: Wells Fargo_(1937)_DVDRip_.avi
Title: Wells Fargo (1937)
Author: Frank Lloyd
Copyleft: Ripped_by_rjhlb777
Genre: History, Western
Category: Movie
Comment: AVO (Андрей Дольский) + Original Eng
FileSize: 1515.62 Mb ( 1 589 239 808 bytes )
Play length: 01:36:45.347 (139189 frames)
Subtitles: Not Present
Video: 608x464 (1.31:1), 23.976 fps, XviD build 73 ~1791 kbps avg, 0.26 bit/pixel
Audio #1: 48 kHz, AC3 Dolby Digital, 2/0 (L,R) ch, ~192 kbps
Audio #2: 48 kHz, AC3 Dolby Digital, 2/0 (L,R) ch, ~192 kbps

MediaInfo

General
Complete name : I:\111\z_D_Disk\Wells Fargo_(1937)_DVDRip_.avi
Format : AVI
Format/Info : Audio Video Interleave
File size : 1.48 GiB
Duration : 1 h 36 min
Overall bit rate : 2 190 kb/s
Movie name : Wells Fargo (1937)
Director : Frank Lloyd
Genre : History, Western
Writing application : VirtualDubMod 1.5.10.3 | www.virtualdub-fr.org || (build 2550/release)
Original source form/Name : Movie
Copyright : Ripped_by_rjhlb777
Comment : AVO (Андрей Дольский) + Original Eng
Video
ID : 0
Format : MPEG-4 Visual
Format profile : Advanced [email protected]
Format settings, BVOP : 2
Format settings, QPel : No
Format settings, GMC : No warppoints
Format settings, Matrix : Custom
Codec ID : XVID
Codec ID/Hint : XviD
Duration : 1 h 36 min
Bit rate : 1 792 kb/s
Width : 608 pixels
Height : 464 pixels
Display aspect ratio : 4:3
Frame rate : 23.976 (24000/1001) FPS
Color space : YUV
Chroma subsampling : 4:2:0
Bit depth : 8 bits
Scan type : Progressive
Compression mode : Lossy
Bits/(Pixel*Frame) : 0.265
Stream size : 1.21 GiB (82%)
Writing library : XviD 73
Audio #1
ID : 1
Format : AC-3
Format/Info : Audio Coding 3
Mode extension : CM (complete main)
Format settings, Endianness : Big
Codec ID : 2000
Duration : 1 h 36 min
Bit rate mode : Constant
Bit rate : 192 kb/s
Channel(s) : 2 channels
Channel positions : Front: L R
Sampling rate : 48.0 kHz
Frame rate : 31.250 FPS (1536 spf)
Bit depth : 16 bits
Compression mode : Lossy
Stream size : 133 MiB (9%)
Alignment : Split accross interleaves
Interleave, duration : 42 ms (1.00 video frame)
Interleave, preload duratio : 500 ms
Audio #2
ID : 2
Format : AC-3
Format/Info : Audio Coding 3
Mode extension : CM (complete main)
Format settings, Endianness : Big
Codec ID : 2000
Duration : 1 h 36 min
Bit rate mode : Constant
Bit rate : 192 kb/s
Channel(s) : 2 channels
Channel positions : Front: L R
Sampling rate : 48.0 kHz
Frame rate : 31.250 FPS (1536 spf)
Bit depth : 16 bits
Compression mode : Lossy
Stream size : 133 MiB (9%)
Alignment : Split accross interleaves
Interleave, duration : 42 ms (1.00 video frame)
Interleave, preload duratio : 500 ms

If your ratio falls below 0.3, you will not be able to download Torrents! More about the rating.

[erzsebet.pl].t457.torrent
Torrent: Registered   [ 2017-12-02 16:42 ]

Download .torrent

Download

15 KB

Status: checked
Completed: 16 times
Size: 1.48 GB
terms.php

#1

02-Dec-2017 16:41

[Profile]  [PM] 
Display posts:    

You cannot post new topics in this forum
You cannot reply to topics in this forum
You cannot edit your posts in this forum
You cannot delete your posts in this forum
You cannot vote in polls in this forum
You cannot attach files in this forum
You can download files in this forum
User agreement
For copyright holders
Advertise on this site

Скачайте на халяву через торрент на трекере erzsebet.pl

!ATTENTION!
The site does not give electronic versions of products, and is engaged only in a collecting and cataloguing of the references sent and published at a forum by our readers. If you are the legal owner of any submitted material and do not wish that the reference to it was in our catalogue, contact us and we shall immediately remove her. Files for an exchange on tracker are given by users of a site, and the administration does not bear the responsibility for their maintenance. The request to not fill in the files protected by copyrights, and also files of the illegal maintenance!