Великолепный гладиатор / Il magnifico gladiatore (Альфонсо Брешия / Alfonso Brescia) [1964, Италия, приключения, DVDRip] Sub Rus (Антон Каптелов)

DL-List and Torrent activity
Size:  1.46 GB   |    Registered:  2 years 9 months   |    Completed:  16 times
Seeders:  2  
 
   
 
 

erzsebet.org ®

Longevity:
2 years 9 months
Posts:
47596

[Quote] 

Великолепный гладиатор / Il magnifico gladiatore Страна: Италия
Жанр: приключения
Год выпуска: 1964
Продолжительность: 01:35:05
Перевод: Субтитры Антон Каптелов
Субтитры: русские
Режиссер: Альфонсо Брешия / Alfonso Brescia
В ролях: Марк Форест, Марилу Толо, Паоло Гозлино, Йоланда Модио, Оресте Лионнелло, Наццарено Дзамперла, Феделе Джентиле, Джулио Томей, Ренато Монтальбано
Описание: В одном из кровопролитных боев римским солдатам удается захватить в плен сына вождя даков - Геркулеса. Его отправляют в Рим, где молодой человек становится гладиатором. За силу и храбрость, проявленные на арене, Цезарь приближает Геркулеса ко двору и в него влюбляется единственная дочь повелителя - Велида. Но сенатор Зудда, давно мечтавший о руке прекрасной царевны и узурпации римской власти, находит человека, как две капли воды похожего на Цезаря, и решает заменить неугодного правителя.
Сэмпл: http://multi-up.com/1163257
Качество видео: DVDRip (рип скачан с Синемагеддона)
Формат видео: AVI
Видео: 688x288 (2.39:1), 23.976 fps, XviD build 47 ~2065 kbps avg, 0.44 bit/pixel
Аудио: 48 kHz, MPEG Layer 3, 2 ch, ~128.00 kbps avg английский
Формат субтитров: softsub (SRT)
Релиз:

MediaInfo

Формат : AVI
Формат/Информация : Audio Video Interleave
Размер файла : 1,46 Гбайт
Продолжительность : 1 ч. 35 м.
Общий поток : 2203 Кбит/сек
Видео
Идентификатор : 0
Формат : MPEG-4 Visual
Профиль формата : Advanced [email protected]
Параметр BVOP формата : 1
Параметр QPel формата : Нет
Параметр GMC формата : Без точки перехода
Параметр матрицы формата : Default (MPEG)
Идентификатор кодека : XVID
Идентификатор кодека/Подсказка : XviD
Продолжительность : 1 ч. 35 м.
Битрейт : 2066 Кбит/сек
Ширина : 688 пикселей
Высота : 288 пикселей
Соотношение сторон : 2,40:1
Частота кадров : 23,976 (24000/1001) кадра/сек
Цветовое пространство : YUV
Субдискретизация насыщенности : 4:2:0
Битовая глубина : 8 бит
Тип развёртки : Прогрессивная
Метод сжатия : С потерями
Бит/(Пиксели*Кадры) : 0.435
Размер потока : 1,37 Гбайт (94%)
Библиотека кодирования : XviD 1.2.0.dev47 (UTC 2006-11-01)
Аудио
Идентификатор : 1
Формат : MPEG Audio
Версия формата : Version 1
Профиль формата : Layer 3
Режим : Joint stereo
Расширение режима : MS Stereo
Идентификатор кодека : 55
Идентификатор кодека/Подсказка : MP3
Продолжительность : 1 ч. 35 м.
Вид битрейта : Постоянный
Битрейт : 128 Кбит/сек
Каналы : 2 канала
Частота : 48,0 КГц
Метод сжатия : С потерями
Размер потока : 87,0 Мбайт (6%)
Выравнивание : Соединение по промежуткам
Продолжительность промежутка : 42 мс. (1,00 видеокадр)
Время предзагрузки промежутка : 504 мс.
Библиотека кодирования : LAME3.97
Настройки программы : -m j -V 4 -q 2 -lowpass 17 -b 128

Скриншот c названием фильма

Пример субтитров

7
00:02:59,804 --> 00:03:01,577
В атаку!
8
00:03:22,377 --> 00:03:24,302
- Кто этот человек?
- Его зовут Геркулесом.
9
00:03:24,410 --> 00:03:26,928
Они называют его Геркулесом,
сыном короля Дакии!
10
00:03:31,939 --> 00:03:33,872
Какая удача, этот бой!
11
00:03:34,104 --> 00:03:37,610
Уверен, что ради того, чтобы захватить его,
не жаль принести в жертву несколько
моих легионеров!
12
00:03:37,759 --> 00:03:41,327
Надеюсь, что ты прав, консул.
Ведь не похоже, что он собирается сдаться.
13
00:04:11,158 --> 00:04:12,910
Эй, Геркулес!
14
00:04:13,505 --> 00:04:16,230
Брасай свое копье, и я сохраню
тебе жизнь! Даю слово!
15
00:04:16,389 --> 00:04:17,875
Никогда!
16
00:04:18,062 --> 00:04:21,223
У тебя нет выбора!
Я предупреждаю тебя!
17
00:04:21,661 --> 00:04:24,960
Твои люди схвачены.
Теперь все в наших руках.
18
00:04:25,575 --> 00:04:27,261
Стража, окружить его!
19
00:04:32,538 --> 00:04:34,773
Не убейте его, дурачье!
20
00:04:36,357 --> 00:04:38,366
Я хочу, чтобы вы взяли его живым!
21
00:04:40,896 --> 00:04:43,173
Рим ждет нас с распростертыми объятиями.
22
00:04:43,423 --> 00:04:45,571
И после целого года сражений...
23
00:04:46,390 --> 00:04:48,471
...настало время предаться
некоторым удовольствиям.
24
00:04:48,754 --> 00:04:50,179
Но зачем его брать с нами?
25
00:04:50,335 --> 00:04:52,045
Потому что он - Геркулес!
26
00:04:52,148 --> 00:04:54,546
У императора появится великолепный гладиатор!
27
00:05:07,698 --> 00:05:10,119
Шевелитесь, несчастные улитки!
Огромное спасибо Антону Каптеловуза перевод и larisa547 за предоставленный рип и организацию перевода!

If your ratio falls below 0.3, you will not be able to download Torrents! More about the rating.

[erzsebet.pl].t470.torrent
Torrent: Registered   [ 2017-12-02 16:42 ]

Download .torrent

Download

15 KB

Status: checked
Completed: 16 times
Size: 1.46 GB
terms.php

#1

02-Dec-2017 16:41

[Profile]  [PM] 
Display posts:    

You cannot post new topics in this forum
You cannot reply to topics in this forum
You cannot edit your posts in this forum
You cannot delete your posts in this forum
You cannot vote in polls in this forum
You cannot attach files in this forum
You can download files in this forum
User agreement
For copyright holders
Advertise on this site

Скачайте на халяву через торрент на трекере erzsebet.pl

!ATTENTION!
The site does not give electronic versions of products, and is engaged only in a collecting and cataloguing of the references sent and published at a forum by our readers. If you are the legal owner of any submitted material and do not wish that the reference to it was in our catalogue, contact us and we shall immediately remove her. Files for an exchange on tracker are given by users of a site, and the administration does not bear the responsibility for their maintenance. The request to not fill in the files protected by copyrights, and also files of the illegal maintenance!