Свидетель обвинения / Witness for the Prosecution (Билли Уайлдер / Billy Wilder) [1957, США, детектив, триллер, Telesync > DVD] [Советская прокатная копия] Dub (Горького)

DL-List and Torrent activity
Size:  3.92 GB   |    Registered:  2 years 9 months   |    Completed:  16 times
Seeders:  4  
 
   
 
 

erzsebet.org ®

Longevity:
2 years 9 months
Posts:
47596

[Quote] 

Свидетель обвинения / Witness for the Prosecution [Советская прокатная копия]- Страна: США
Жанр: детектив, триллер
Год выпуска: 1957
Продолжительность: 01:38:44-Перевод: Профессиональный (дублированный) - Киностудия им. М. Горького
Субтитры: нет-Режиссер: Билли Уайлдер / Billy Wilder
В ролях: Тайрон Пауэр, Марлен Дитрих, Чарльз Лотон, Эльза Ланчестер, Джон Уильямс, Генри Дэниелл, Йен Вульф, Торин Тэтчер, Норма Варден, Уна О’Коннор- | Релиз: -Описание: Остроумная, терпкая адаптация известной пьесы Агаты Кристи, донесенная до экрана со всей ее свежестью и живостью. Сэр Уилфрид Робартс (Лоутон) - тяжело больной адвокат, которому врачи запретили заниматься уголовными делами. Выполнить их рекомендации он смог только благодаря заботливой домашней медсестре мисс Плимсолл (Лэнчестер, жена Лоутона в реальной жизни). Но когда его поверенный приводит к нему домой подозреваемого в убийстве Леонарда Воула (Пауэр), Робартс не может устоять и соглашается вести дело. Услышав историю Воула, Робартс полностью верит в его невиновность, но алиби может подтвердить только жена Кристина (Дитрих), поэтому перспективы на оправдательный вердикт выглядят крайне туманно. Еще до того как заканчивается их встреча, становится известно, что мистер Воул унаследовал от убитой целое состояние. Мотив убийства очевиден. Воула арестовывают. Робартс, однако, продолжает верить обвиняемому…-Семпл: http://sendfile.su/1351878-Тип релиза: Telesync
Контейнер: DVD-Video
Видео: 704x576 (4:3), 25.000 fps, MPEG-2 Video, ~5277 Kbps, 0.521 bits/pixel
Аудио: Русский, 48.0 KHz, AC3, 2 ch, 256 Kbps

DVDInfo

Title: Свидетель обвинения 1957 Dub Горького
Size: 3.92 Gb ( 4 114 444,00 KBytes ) - DVD-5
Enabled regions: 1, 2, 3, 4, 5, 6, 7, 8
VTS_01 :
Play Length: 01:38:44
Video: PAL 4:3 (704x576) VBR
Audio:
Russian, AC3, 2/0 (L,R) ch, 256 kbps, Delay 0 mSec

MediaInfo

General
Complete name : \Свидетель обвинения 1957 Dub Горького\VIDEO_TS\VTS_01_1.VOB
Format : MPEG-PS
File size : 1 024 MiB
Duration : 25 min 21 s
Overall bit rate mode : Variable
Overall bit rate : 5 645 kb/s
Video
ID : 224 (0xE0)
Format : MPEG Video
Format version : Version 2
Format profile : [email protected]
Format settings, BVOP : Yes
Format settings, Matrix : Default
Format settings, GOP : M=3, N=12
Format settings, picture structure : Frame
Duration : 25 min 21 s
Bit rate mode : Variable
Bit rate : 5 277 kb/s
Maximum bit rate : 9 579 kb/s
Width : 704 pixels
Height : 576 pixels
Display aspect ratio : 4:3
Frame rate : 25.000 FPS
Standard : PAL
Color space : YUV
Chroma subsampling : 4:2:0
Bit depth : 8 bits
Scan type : Interlaced
Scan order : Top Field First
Compression mode : Lossy
Bits/(Pixel*Frame) : 0.521
Time code of first frame : 00:00:00:00
Time code source : Group of pictures header
GOP, Open/Closed : Open
GOP, Open/Closed of first frame : Closed
Stream size : 957 MiB (93%)
Color primaries : BT.601 PAL
Transfer characteristics : BT.470 System B, BT.470 System G
Matrix coefficients : BT.601
Audio
ID : 189 (0xBD)-128 (0x80)
Format : AC-3
Format/Info : Audio Coding 3
Format settings, Endianness : Big
Muxing mode : DVD-Video
Duration : 25 min 21 s
Bit rate mode : Constant
Bit rate : 256 kb/s
Channel(s) : 2 channels
Channel positions : Front: L R
Sampling rate : 48.0 kHz
Frame rate : 31.250 FPS (1536 SPF)
Bit depth : 16 bits
Compression mode : Lossy
Stream size : 46.4 MiB (5%)
Service kind : Complete Main
Menu

If your ratio falls below 0.3, you will not be able to download Torrents! More about the rating.

[erzsebet.pl].t477.torrent
Torrent: Registered   [ 2017-12-02 16:42 ]

Download .torrent

Download

21 KB

Status: checked
Completed: 16 times
Size: 3.92 GB
terms.php

#1

02-Dec-2017 16:40

[Profile]  [PM] 
Display posts:    

You cannot post new topics in this forum
You cannot reply to topics in this forum
You cannot edit your posts in this forum
You cannot delete your posts in this forum
You cannot vote in polls in this forum
You cannot attach files in this forum
You can download files in this forum
User agreement
For copyright holders
Advertise on this site

Скачайте на халяву через торрент на трекере erzsebet.pl

!ATTENTION!
The site does not give electronic versions of products, and is engaged only in a collecting and cataloguing of the references sent and published at a forum by our readers. If you are the legal owner of any submitted material and do not wish that the reference to it was in our catalogue, contact us and we shall immediately remove her. Files for an exchange on tracker are given by users of a site, and the administration does not bear the responsibility for their maintenance. The request to not fill in the files protected by copyrights, and also files of the illegal maintenance!