Барака встречает Барака / Barakah Meets Barakah / Barakah yoqabil Barakah (Махмуд Саббаг / Mahmoud Sabbagh) [2016, Саудовская Аравия, комедия, HDRip] VO (visanti-vasaer)

Reply to topic
DL-List and Torrent activity
Size:  1.35 GB   |    Registered:  3 years 3 months   |    Completed:  16 times

Seeder not seen: Never

 
   
 
 
Author Message

erzsebet.org ®

Longevity: 3 years 2 months

Posts: 47596

Post 02-Dec-2017 15:57

[Quote]

Барака встречает Барака / Barakah Meets Barakah / Barakah yoqabil Barakah
Страна: Саудовская Аравия
Жанр: комедия
Год выпуска: 2016
Продолжительность: 01:28:24
Перевод: Одноголосый закадровый (visanti-vasaer)
Субтитры: Русские, английские.
Оригинальная аудиодорожка: Арабская
Режиссер: Махмуд Саббаг / Mahmoud Sabbagh
В ролях: Хишам Фагих, Фатима Аль Банави, Сами Хифни, Каирия Назми, Абдулмаджид Аль-Рухайди, Турки Шайк, Мариан Билал
Описание: Парень из среднего класса знакомиться с девушкой из богатой семьи, но на пути их романтических встреч встают законы и обычаи общества.
Доп. информация: Фильм выдвинут Саудовской Аравией на премию «Оскар» за лучший фильм на иностранном языке в 2017г.
Сэмпл: https://yadi.sk/i/td9iEa0m3Q6hEd
Качество видео: HDRip
Формат видео: MKV
Видео: x264, 1152x480, 23,976 fps, 1767 kbps
Аудио: AC3 48000 Гц, 2ch, 192 Кбит/сек, русская
Аудио 2: AC3 48000 Гц, 2ch, 192 Кбит/сек, арабская
Формат субтитров: softsub (SRT)

MediaInfo

Формат : Matroska
Версия формата : Version 2
Размер файла : 1,35 Гбайт
Продолжительность : 1 ч. 28 м.
Общий поток : 2194 Кбит/сек
Дата кодирования : UTC 2017-11-27 19:10:37
Программа кодирования : mkvmerge v6.9.1 ('Blue Panther') 32bit built on Apr 18 2014 18:15:44
Библиотека кодирования : libebml v1.3.0 + libmatroska v1.4.1
Видео
Идентификатор : 1
Формат : AVC
Формат/Информация : Advanced Video Codec
Профиль формата : [email protected]
Параметр CABAC формата : Да
Параметр ReFrames формата : 4 кадра
Идентификатор кодека : V_MPEG4/ISO/AVC
Продолжительность : 1 ч. 28 м.
Битрейт : 1767 Кбит/сек
Ширина : 1152 пикселя
Высота : 480 пикселей
Соотношение сторон : 2,40:1
Режим частоты кадров : Постоянный
Частота кадров : 23,976 (24000/1001) кадра/сек
Цветовое пространство : YUV
Субдискретизация насыщенности : 4:2:0
Битовая глубина : 8 бит
Тип развёртки : Прогрессивная
Бит/(Пиксели*Кадры) : 0.133
Размер потока : 1,09 Гбайт (81%)
Библиотека кодирования : x264 core 148 r2638 7599210
Настройки программы : cabac=1 / ref=1 / deblock=1:-2:-1 / analyse=0x3:0x113 / me=hex / subme=2 / psy=1 / psy_rd=1.00:0.20 / mixed_ref=0 / me_range=16 / chroma_me=1 / trellis=0 / 8x8dct=1 / cqm=0 / deadzone=21,11 / fast_pskip=1 / chroma_qp_offset=0 / threads=1 / lookahead_threads=1 / sliced_threads=0 / nr=0 / decimate=1 / interlaced=0 / bluray_compat=0 / constrained_intra=0 / bframes=3 / b_pyramid=2 / b_adapt=1 / b_bias=0 / direct=1 / weightb=1 / open_gop=0 / weightp=1 / keyint=250 / keyint_min=23 / scenecut=40 / intra_refresh=0 / rc_lookahead=10 / rc=crf / mbtree=1 / crf=15.4 / qcomp=0.60 / qpmin=0 / qpmax=69 / qpstep=4 / ip_ratio=1.40 / aq=1:1.00
Default : Да
Forced : Нет
Аудио #1
Идентификатор : 2
Формат : AC-3
Формат/Информация : Audio Coding 3
Расширение режима : CM (complete main)
Параметр Endianness формата : Big
Идентификатор кодека : A_AC3
Продолжительность : 1 ч. 28 м.
Вид битрейта : Постоянный
Битрейт : 192 Кбит/сек
Каналы : 2 канала
Расположение каналов : Front: L R
Частота : 48,0 КГц
Частота кадров : 31,250 кадров/сек (1536 spf)
Битовая глубина : 16 бит
Метод сжатия : С потерями
Размер потока : 121 Мбайт (9%)
Язык : Russian
Default : Нет
Forced : Нет
Аудио #2
Идентификатор : 3
Формат : AC-3
Формат/Информация : Audio Coding 3
Расширение режима : CM (complete main)
Параметр Endianness формата : Big
Идентификатор кодека : A_AC3
Продолжительность : 1 ч. 28 м.
Вид битрейта : Постоянный
Битрейт : 192 Кбит/сек
Каналы : 2 канала
Расположение каналов : Front: L R
Частота : 48,0 КГц
Частота кадров : 31,250 кадров/сек (1536 spf)
Битовая глубина : 16 бит
Метод сжатия : С потерями
Размер потока : 121 Мбайт (9%)
Язык : Arabic
Default : Да
Forced : Нет
Текст #1
Идентификатор : 4
Формат : UTF-8
Идентификатор кодека : S_TEXT/UTF8
Идентификатор кодека/Информация : UTF-8 Plain Text
Язык : Russian
Default : Да
Forced : Нет
Текст #2
Идентификатор : 5
Формат : UTF-8
Идентификатор кодека : S_TEXT/UTF8
Идентификатор кодека/Информация : UTF-8 Plain Text
Язык : English
Default : Нет
Forced : Нет

Скриншот c названием фильма

Скриншоты

[erzsebet.pl].t48.torrent
Torrent: Registered [ 2017-12-02 15:58 ] · 00B6C75D95DE0780AA8604157A3E0890D5A5527D

Download .torrent

Download

14 KB

Status: checked
Completed: 16 times
Size: 1.35 GB
terms.php
[Profile] [PM]
Display posts:    
Reply to topic

Current time is: 03-Mar 17:25

All times are UTC ± 0



You cannot post new topics in this forum
You cannot reply to topics in this forum
You cannot edit your posts in this forum
You cannot delete your posts in this forum
You cannot vote in polls in this forum
You cannot attach files in this forum
You can download files in this forum