Одежда создаёт людей / Kleider machen Leute (Хельмут Койтнер/Helmut Kautne) [1940, Германия, Комедия, DVDRip-AVC] DVO (Сергей Малиновский & Настя)

DL-List and Torrent activity
Size:  1.44 GB   |    Registered:  2 years 9 months   |    Completed:  16 times
Seeders:  3  
 
   
 
 

erzsebet.org ®

Longevity:
2 years 9 months
Posts:
47596

[Quote] 

Одежда создаёт людей / Kleider machen Leute
Страна: Германия
Жанр: Комедия
Год выпуска: 1940
Продолжительность: 01:39:12
Перевод: Лариса К.
Озвучание:Любительский (двухголосый закадровый): Сергей Малиновский & Настя
Субтитры: нет
Режиссер: Хельмут Койтнер/Helmut Käutne
В ролях: Хайнц Рюман, Херта Файлер, Хильда Зессак, Ганс Штернберг, Фриц Одемар, Рудольф Шюндлер, Ганс Штибнер, Эрвин Хоффман, Эрих Понто, Леопольд фон Ледебур, Франц Вебер, Гельмут Вайс, Ариберт Вешер, Ольга Лимбург, Франц Штайн, Клаус Пол.
Описание: Одна из жемчужин кинематографа Германии военных лет, не имеющая ни малой толики пропагандистской риторики. Ранее творчество Хельмута Койтнера отмечено картиной «Одежда создаёт людей», лёгкой, но весьма разноплановой комедией, местами – по-гофмановски сказочно вычурной, местами же – будто отмеченной штрихами плутовского романа. Блестящая игра Хайнца Рюманна, его супруги Херты Файлер и других великолепных мастеров кино тех лет порадует истинных ценителей мирового кинематографа, позволив добавить в их коллекцию еще одну изумительную ноту…
Сэмпл: http://sendfile.su/1350878
Качество видео: DVDRip
Формат видео: MKV
Видео: MPEG4 Video (H264), 640x512 (683:512), 25fps, 1890 Kbps
Аудио: Dolby AC3 48000Hz stereo 192kbps

MediaInfo

General
Unique ID : 209645145224996946934126416060265263635 (0x9DB82FB0991D6B62B6075723B41BF213)
Complete name : D:\Новая папка\Новая папка\Kleider machen Leute 1940.mkv
Format : Matroska
Format version : Version 2
File size : 1.44 GiB
Duration : 1h 39mn
Overall bit rate : 2 084 Kbps
Encoded date : UTC 2017-07-24 10:24:11
Writing application : mkvmerge v5.7.0 ('The Whirlwind') built on Jul 10 2012 18:39:26
Writing library : libebml v1.2.3 + libmatroska v1.3.0
Video
ID : 1
Format : AVC
Format/Info : Advanced Video Codec
Format profile : [email protected]
Format settings, CABAC : Yes
Format settings, ReFrames : 4 frames
Codec ID : V_MPEG4/ISO/AVC
Duration : 1h 39mn
Bit rate : 1 890 Kbps
Width : 640 pixels
Height : 512 pixels
Display aspect ratio : 4:3
Frame rate mode : Constant
Frame rate : 25.000 fps
Color space : YUV
Chroma subsampling : 4:2:0
Bit depth : 8 bits
Scan type : Progressive
Bits/(Pixel*Frame) : 0.231
Stream size : 1.28 GiB (89%)
Writing library : x264 core 130 r2273 b3065e6
Encoding settings : cabac=1 / ref=1 / deblock=1:0:0 / analyse=0x1:0x111 / me=hex / subme=2 / psy=1 / psy_rd=1.00:0.00 / mixed_ref=0 / me_range=16 / chroma_me=1 / trellis=0 / 8x8dct=0 / cqm=0 / deadzone=21,11 / fast_pskip=1 / chroma_qp_offset=0 / threads=12 / lookahead_threads=4 / sliced_threads=0 / nr=0 / decimate=1 / interlaced=0 / bluray_compat=0 / constrained_intra=0 / bframes=3 / b_pyramid=2 / b_adapt=1 / b_bias=0 / direct=1 / weightb=1 / open_gop=0 / weightp=1 / keyint=250 / keyint_min=25 / scenecut=40 / intra_refresh=0 / rc_lookahead=10 / rc=2pass / mbtree=1 / bitrate=1890 / ratetol=1.0 / qcomp=0.60 / qpmin=0 / qpmax=69 / qpstep=4 / cplxblur=20.0 / qblur=0.5 / ip_ratio=1.40 / aq=1:1.00
Default : Yes
Forced : No
Color primaries : BT.601 PAL
Transfer characteristics : BT.709
Matrix coefficients : BT.601
Color range : Limited
Audio
ID : 2
Format : AC-3
Format/Info : Audio Coding 3
Mode extension : CM (complete main)
Format settings, Endianness : Big
Codec ID : A_AC3
Duration : 1h 39mn
Bit rate mode : Constant
Bit rate : 192 Kbps
Channel(s) : 2 channels
Channel positions : Front: L R
Sampling rate : 48.0 KHz
Bit depth : 16 bits
Compression mode : Lossy
Stream size : 136 MiB (9%)
Default : Yes
Forced : No

Скриншот c названием фильма

[ ]

Скриншоты

[ ][ ][ ][ ][ ][ ][ ]

If your ratio falls below 0.3, you will not be able to download Torrents! More about the rating.

[erzsebet.pl].t497.torrent
Torrent: Registered   [ 2017-12-02 16:56 ]

Download .torrent

Download

15 KB

Status: checked
Completed: 16 times
Size: 1.44 GB
terms.php

#1

02-Dec-2017 16:55

[Profile]  [PM] 
Display posts:    

You cannot post new topics in this forum
You cannot reply to topics in this forum
You cannot edit your posts in this forum
You cannot delete your posts in this forum
You cannot vote in polls in this forum
You cannot attach files in this forum
You can download files in this forum
User agreement
For copyright holders
Advertise on this site

Скачайте на халяву через торрент на трекере erzsebet.pl

!ATTENTION!
The site does not give electronic versions of products, and is engaged only in a collecting and cataloguing of the references sent and published at a forum by our readers. If you are the legal owner of any submitted material and do not wish that the reference to it was in our catalogue, contact us and we shall immediately remove her. Files for an exchange on tracker are given by users of a site, and the administration does not bear the responsibility for their maintenance. The request to not fill in the files protected by copyrights, and also files of the illegal maintenance!