Мэнди / Mandy / Crash of Silence (Александр Маккендрик / Alexander Mackendrick) [1952, Великобритания, драма, BDRip] Dub (Горького) + Original Eng + Sub (Rus, Eng)

DL-List and Torrent activity
Size:  1.46 GB   |    Registered:  2 years 9 months   |    Completed:  16 times
Seeders:  2   Leechers:  1   Show peers in full details
 
   
 
 

erzsebet.org ®

Longevity:
2 years 9 months
Posts:
47596

[Quote] 

Мэнди / Mandy- Год выпуска: 1952
Страна: Великобритания
Жанр: драма
Продолжительность: 01:33:17
Перевод: Профессиональный (дублированный) Киностудия им. М. Горького
Оригинальная аудиодорожка: Английская
Субтитры: Русские (по дубляжу; полные, для слабослышащих), английские (полные, для слабослышащих)-Режиссер: Александр Маккендрик / Alexander Mackendrick
В ролях: Филлис Кэлверт, Джек Хоукинс, Теренс Морган, Годфри Тирл, Мэнди Миллер, Марджори Филдинг, Нэнси Прайс, Эдвард Чэпман, Патриция Планкетт, Элинор Саммерфилд-Описание:
Когда родители обнаруживают, что Мэнди - глухая, её мать Кристина хочет отправить её в спецшколу, чтобы её там научили говорить и писать. Однако её отец, Гарри, стыдится своей дочери и предпочитает прятать Мэнди в доме с гувернанткой, которая общается с девочкой дактилем.
Однако после того, как Кристина видит, как реагирует Мэнди на других детей, она понимает, что девочка должна посещать школу и уходит от Гарри.
Огромное участие в девочке принимает директор школы Серл. Окружающие считают, что у них с Кристиной нежные взаимоотношения, тогда как на самом деле их связывает только забота и любовь к Мэнди. Прогресс Мэнди просто завораживает.-За дорожку спасибо xfiles, за работу со звуком спасибо Нордер.
| | Сэмпл-Качество: BDRip
Контейнер: AVI
Видео: XviD, 704x512 (1.37:1), 24 fps, ~1838 kbps, 0.21 bit/pixel
Аудио 1: Русский AC3 2.0, 48 kHz, 192 kbps
Аудио 2: Английский AC3 2.0, 48 kHz, 192 kbps
Формат субтитров: softsub (SRT)

Скриншоты


MI

General
Complete name : Mandy.1952.BDRip\Mandy.1952.BDRip.avi
Format : AVI
Format/Info : Audio Video Interleave
File size : 1.46 GiB
Duration : 1 h 33 min
Overall bit rate : 2 236 kb/s
Writing application : VirtualDubMod 1.5.10.3 | www.virtualdub-fr.org || (build 2550/release)
Copyright : erzsebet
Video
ID : 0
Format : MPEG-4 Visual
Format profile : Advanced [email protected]
Format settings, BVOP : 1
Format settings, QPel : No
Format settings, GMC : No warppoints
Format settings, Matrix : Custom
Codec ID : XVID
Codec ID/Hint : XviD
Duration : 1 h 33 min
Bit rate : 1 838 kb/s
Width : 704 pixels
Height : 512 pixels
Display aspect ratio : 1.375
Frame rate : 24.000 FPS
Color space : YUV
Chroma subsampling : 4:2:0
Bit depth : 8 bits
Scan type : Progressive
Compression mode : Lossy
Bits/(Pixel*Frame) : 0.212
Stream size : 1.20 GiB (82%)
Writing library : XviD 67
Audio #1
ID : 1
Format : AC-3
Format/Info : Audio Coding 3
Format settings, Endianness : Big
Codec ID : 2000
Duration : 1 h 33 min
Bit rate mode : Constant
Bit rate : 192 kb/s
Channel(s) : 2 channels
Channel positions : Front: L R
Sampling rate : 48.0 kHz
Frame rate : 31.250 FPS (1536 spf)
Bit depth : 16 bits
Compression mode : Lossy
Stream size : 128 MiB (9%)
Alignment : Split accross interleaves
Interleave, duration : 42 ms (1.00 video frame)
Interleave, preload duration : 500 ms
Service kind : Complete Main
Audio #2
ID : 2
Format : AC-3
Format/Info : Audio Coding 3
Format settings, Endianness : Big
Codec ID : 2000
Duration : 1 h 33 min
Bit rate mode : Constant
Bit rate : 192 kb/s
Channel(s) : 2 channels
Channel positions : Front: L R
Sampling rate : 48.0 kHz
Frame rate : 31.250 FPS (1536 spf)
Bit depth : 16 bits
Compression mode : Lossy
Stream size : 128 MiB (9%)
Alignment : Split accross interleaves
Interleave, duration : 42 ms (1.00 video frame)
Interleave, preload duration : 500 ms
Service kind : Complete Main

If your ratio falls below 0.3, you will not be able to download Torrents! More about the rating.

[erzsebet.pl].t498.torrent
Torrent: Registered   [ 2017-12-02 16:56 ]

Download .torrent

Download

59 KB

Status: checked
Completed: 16 times
Size: 1.46 GB
terms.php

#1

02-Dec-2017 16:55

[Profile]  [PM] 
Display posts:    

You cannot post new topics in this forum
You cannot reply to topics in this forum
You cannot edit your posts in this forum
You cannot delete your posts in this forum
You cannot vote in polls in this forum
You cannot attach files in this forum
You can download files in this forum
User agreement
For copyright holders
Advertise on this site

Скачайте на халяву через торрент на трекере erzsebet.pl

!ATTENTION!
The site does not give electronic versions of products, and is engaged only in a collecting and cataloguing of the references sent and published at a forum by our readers. If you are the legal owner of any submitted material and do not wish that the reference to it was in our catalogue, contact us and we shall immediately remove her. Files for an exchange on tracker are given by users of a site, and the administration does not bear the responsibility for their maintenance. The request to not fill in the files protected by copyrights, and also files of the illegal maintenance!