Харчевня в Шпессарте / Das Wirtshaus im Spessart / The Spessart Inn (Курт Хоффман / Kurt Hoffmann) [1958, ФРГ, Комедия, DVDRip] MVO (ТВ 5) + VO (Культура)

Reply to topic
DL-List and Torrent activity
Size:  749 MB   |    Registered:  3 years 3 months   |    Completed:  16 times

Seeder not seen: Never

 
   
 
 
Author Message

erzsebet.org ®

Longevity: 3 years 2 months

Posts: 47596

Post 02-Dec-2017 15:57

[Quote]

Харчевня в Шпессарте / Das Wirtshaus im Spessart / The Spessart Inn
Страна: ФРГ
Жанр: Комедия
Год выпуска: 1958
Продолжительность: 01:35:55
Перевод 1: Профессиональный (многоголосый закадровый) ТВ 5
Перевод 2: Студийный (одноголосый закадровый) Культура
Субтитры: нет
Оригинальная аудиодорожка: нет
Режиссер: Курт Хоффман / Kurt Hoffmann
В ролях: Лизлотт Пюльве / Liselotte Pulver, Карлос Томпсон / Carlos Thompson, Рудольф Фогель / Rudolf Vogel
Описание: Первый фильм трилогии пародийных комедий. Графиня Франциска с женихом едут в свой родовой замок Зандау. На ночь им приходится остановиться в харчевне в глухом месте Шпессарт. Ночью в харчевню врываются бандиты, чтобы похитить графиню и получить за нее выкуп...
Доп. информация: Рип с моего DVD - http://erzsebet.org/forum/viewtopic.php?t=5483257 Качество гораздо лучше чем в старых рипах. Смотрим сравнение +2 рус дорожки.
Сравнение
Geist_sa http://erzsebet.org/forum/viewtopic.php?t=237303 - http://screenshotcomparison.com/comparison/124249
LotusA http://erzsebet.org/forum/viewtopic.php?t=364926 -
http://screenshotcomparison.com/comparison/124252/picture:0
Сэмпл: http://multi-up.com/1177811
Качество видео: DVDRip
Формат видео: AVI
Видео: XviD 704х432, 25.000 fps, 1 092 Kbps
Аудио 1: Русский (MP3 128 kbps 2 ch 48.0 KHz)
Аудио 2: Русский (MP3 128 kbps 2 ch 48.0 KHz)

MediaInfo

General
Complete name : C:\Documents and Settings\Admin\Мои документы\Downloads\Das Wirtshaus im Spessart Rip.avi
Format : AVI
Format/Info : Audio Video Interleave
File size : 749 MiB
Duration : 1h 35mn
Overall bit rate : 1 092 Kbps
Writing application : VirtualDubMod 1.5.4.1 (build 2066/release)
Writing library : VirtualDubMod build 2066/release
Video
ID : 0
Format : MPEG-4 Visual
Format profile : Advanced [email protected]
Format settings, BVOP : 1
Format settings, QPel : No
Format settings, GMC : No warppoints
Format settings, Matrix : Custom
Codec ID : XVID
Codec ID/Hint : XviD
Duration : 1h 35mn
Bit rate : 821 Kbps
Width : 704 pixels
Height : 432 pixels
Display aspect ratio : 16:10
Frame rate : 25.000 fps
Color space : YUV
Chroma subsampling : 4:2:0
Bit depth : 8 bits
Scan type : Progressive
Compression mode : Lossy
Bits/(Pixel*Frame) : 0.108
Stream size : 564 MiB (75%)
Writing library : XviD 1.2.1 (UTC 2008-12-04)
Audio #1
ID : 1
Format : MPEG Audio
Format version : Version 1
Format profile : Layer 3
Mode : Joint stereo
Mode extension : MS Stereo
Codec ID : 55
Codec ID/Hint : MP3
Duration : 1h 35mn
Bit rate mode : Constant
Bit rate : 128 Kbps
Channel(s) : 2 channels
Sampling rate : 48.0 KHz
Compression mode : Lossy
Stream size : 87.8 MiB (12%)
Alignment : Aligned on interleaves
Interleave, duration : 40 ms (1.00 video frame)
Interleave, preload duration : 504 ms
Writing library : LAME3.99r
Encoding settings : -m j -V 4 -q 5 -lowpass 17 -b 128
Language : Russian
Audio #2
ID : 2
Format : MPEG Audio
Format version : Version 1
Format profile : Layer 3
Mode : Joint stereo
Mode extension : MS Stereo
Codec ID : 55
Codec ID/Hint : MP3
Duration : 1h 35mn
Bit rate mode : Constant
Bit rate : 128 Kbps
Channel(s) : 2 channels
Sampling rate : 48.0 KHz
Compression mode : Lossy
Stream size : 87.8 MiB (12%)
Alignment : Aligned on interleaves
Interleave, duration : 40 ms (1.00 video frame)
Interleave, preload duration : 504 ms
Writing library : LAME3.99r
Encoding settings : -m j -V 4 -q 5 -lowpass 17 -b 128

Скриншот c названием фильма

Скриншоты

[erzsebet.pl].t50.torrent
Torrent: Registered [ 2017-12-02 15:58 ] · 2A98160A0E3775B5A7151937914B2526D0DD531E

Download .torrent

Download

15 KB

Status: checked
Completed: 16 times
Size: 749 MB
terms.php
[Profile] [PM]
Display posts:    
Reply to topic

Current time is: 05-Mar 03:11

All times are UTC ± 0



You cannot post new topics in this forum
You cannot reply to topics in this forum
You cannot edit your posts in this forum
You cannot delete your posts in this forum
You cannot vote in polls in this forum
You cannot attach files in this forum
You can download files in this forum