Искатели приключений / Les aventuriers (Робер Энрико / Robert Enrico) [1967, Италия, Франция, Драма, приключения, TVRip-AVC] [Советская прокатная версия] Dub (к/ст "Мосфильм")

DL-List and Torrent activity
Size:  1.45 GB   |    Registered:  2 years 9 months   |    Completed:  16 times
Seeders:  6  
 
   
 
 

erzsebet.org ®

Longevity:
2 years 9 months
Posts:
47596

[Quote] 

Искатели приключений / Les aventuriers / [Советская прокатная версия]
Жанр: Драма, приключения
Страна: Италия, Франция
Студия: CGIC, Compagnia Generale Finanziaria Cinematografica, Société Nouvelle de Cinématographie (SNC)
Год выпуска: 1967
Продолжительность: 01:36:10
Перевод: Профессиональный (дублированный) - к/ст "Мосфильм"
Субтитры: нет
Режиссер: Робер Энрико / Robert Enrico
В ролях:
Ален Делон / Alain Delon ... Manu - дублирует Владимир Гусев
Лино Вентура / Lino Ventura ... Roland - Евгений Весник
Джоанна Шимкус / Joanna Shimkus ... Laetitia - Тамара Сёмина
Серж Реджани / Serge Reggiani ... Le pilote / Pilot - Владимир Ферапонтов
Ганс Мейер / Hans Meyer ... Le mercenaire
Жан Дарье / Jean Darie ...
Жан Троньон / Jean Trognon ...
Одиль Пуассон / Odile Poisson ... Yvette
Ирен Тунк / Irène Tunc ... La secrétaire de Kyobaski
Валерий Инкижинов / Valéry Inkijinoff ... Kyobaski, le producteur
Рауль Гилад / Raoul Guylad ...
Жан Ландье / Jean Landier ...
Ги Делорм / Guy Delorme ... Un tueur
Патрик Бернар / Patrick Bernhard ...
Ролан Флери / Roland Fleury ...
Описание: По мотивам романа Хосе Джованни (José Giovanni).
Троицу отважных парижан одолевают сумасбродные мечты. Пролететь на самолете под Триумфальной аркой, например. Но даже такие устремления не останавливают их перед возможностью еще более рискованных приключений. Они отправляются к берегам Конго за …сокровищами. Но там их ждет роковое столкновение…
Дополнительная информация: Релиз:
* Запись со спутника выполнена Saulius Kintera / Luxembourg /, который предоставил видео, за что приносим ему Благодарность!
Большое спасибо за помощь в подготовке релиза - trecioka!
Фильм дублирован Центральной студией киноактёра киностудии «Мосфильм» и выпущен в прокат в июне 1968 года.
Режиссёр дубляжа: Евгений Алексеев
Звукооператор: Н.Калиниченко
Автор русского синхронного текста: Н.Герман
Редактор: Л.Балашова
Роли дублировали: Владимир Гусев, Евгений Весник, Тамара Сёмина, Владимир Ферапонтов
* Одна из версий прекрасного авантюрно-приключенческого фильма с полным советским дубляжом, транслировавшимся на зарубежные страны и записанный почти 20 лет назад.
IMDb = 7,4/10 (2 067) - http://www.imdb.com/title/tt0061376/
Кинопоиск = 7.867 (2170) - http://www.kinopoisk.ru/film/77221/
ВНИМАНИЕ!!! РИП ФОРМАТА mkv (кодек H.264) ВОСПРОИЗВОДИТСЯ НЕ НА ВСЕХ БЫТОВЫХ ВИДЕОПЛЕЕРАХ!!!
ПРОСЬБА к СКАЧАВШИМ. НЕ УХОДИТЕ С РАЗДАЧИ, ПОМОГИТЕ ДРУГИМ СКАЧАТЬ!!!
Качество видео: TVRip-AVC
Формат видео: MKV
Видео: AVC (H264), 720x544 (4:3), 25 fps, 1960 kb/s, 0.200 Bits/Pixel
Аудио: AC3, 48 KHz, stereo (2 ch), 192 kbps – советский дубляж

MediaInfo

General
Unique ID : 213323772355124298567281271133352845992 (0xA07CAA02A4C25933B62BFABE9DCD62A8)
Complete name : D:\torrents\Les aventuriers (1967, rus_dub, VHS-rip).mkv
Format : Matroska
Format version : Version 4 / Version 2
File size : 1.45 GiB
Duration : 1 h 36 min
Overall bit rate : 2 154 kb/s
Encoded date : UTC 2017-07-20 02:21:09
Writing application : mkvmerge v13.0.0 ('The Juggler') 64bit
Writing library : libebml v1.3.4 + libmatroska v1.4.5
Video
ID : 1
Format : AVC
Format/Info : Advanced Video Codec
Format profile : [email protected]
Format settings, CABAC : Yes
Format settings, ReFrames : 16 frames
Codec ID : V_MPEG4/ISO/AVC
Duration : 1 h 36 min
Bit rate : 1 960 kb/s
Width : 720 pixels
Height : 544 pixels
Display aspect ratio : 4:3
Frame rate mode : Constant
Frame rate : 25.000 FPS
Color space : YUV
Chroma subsampling : 4:2:0
Bit depth : 8 bits
Scan type : Progressive
Bits/(Pixel*Frame) : 0.200
Stream size : 1.32 GiB (91%)
Writing library : x264 core 130 r2273 b3065e6
Encoding settings : cabac=1 / ref=16 / deblock=1:0:0 / analyse=0x3:0x133 / me=umh / subme=10 / psy=1 / psy_rd=1.00:0.00 / mixed_ref=1 / me_range=24 / chroma_me=1 / trellis=2 / 8x8dct=1 / cqm=0 / deadzone=21,11 / fast_pskip=1 / chroma_qp_offset=-2 / threads=48 / lookahead_threads=4 / sliced_threads=0 / nr=0 / decimate=1 / interlaced=0 / bluray_compat=0 / constrained_intra=0 / bframes=8 / b_pyramid=2 / b_adapt=2 / b_bias=0 / direct=3 / weightb=1 / open_gop=0 / weightp=2 / keyint=250 / keyint_min=25 / scenecut=40 / intra_refresh=0 / rc_lookahead=60 / rc=2pass / mbtree=1 / bitrate=1960 / ratetol=1.0 / qcomp=0.60 / qpmin=0 / qpmax=69 / qpstep=4 / cplxblur=20.0 / qblur=0.5 / ip_ratio=1.40 / aq=1:1.00
Language : French
Default : Yes
Forced : No
Audio
ID : 2
Format : AC-3
Format/Info : Audio Coding 3
Mode extension : CM (complete main)
Format settings, Endianness : Big
Codec ID : A_AC3
Duration : 1 h 36 min
Bit rate mode : Constant
Bit rate : 192 kb/s
Channel(s) : 2 channels
Channel positions : Front: L R
Sampling rate : 48.0 kHz
Frame rate : 31.250 FPS (1536 spf)
Bit depth : 16 bits
Compression mode : Lossy
Delay relative to video : 28 ms
Stream size : 132 MiB (9%)
Language : Russian
Default : Yes
Forced : No

Скриншот c названием фильма

Скриншоты

МОИ РАЗДАЧИ НА РУТРЕКЕРЕ: http://erzsebet.org/forum/tracker.php?rid=27390064

If your ratio falls below 0.3, you will not be able to download Torrents! More about the rating.

[erzsebet.pl].t505.torrent
Torrent: Registered   [ 2017-12-02 16:56 ]

Download .torrent

Download

15 KB

Status: checked
Completed: 16 times
Size: 1.45 GB
terms.php

#1

02-Dec-2017 16:55

[Profile]  [PM] 
Display posts:    

You cannot post new topics in this forum
You cannot reply to topics in this forum
You cannot edit your posts in this forum
You cannot delete your posts in this forum
You cannot vote in polls in this forum
You cannot attach files in this forum
You can download files in this forum
User agreement
For copyright holders
Advertise on this site

Скачайте на халяву через торрент на трекере erzsebet.pl

!ATTENTION!
The site does not give electronic versions of products, and is engaged only in a collecting and cataloguing of the references sent and published at a forum by our readers. If you are the legal owner of any submitted material and do not wish that the reference to it was in our catalogue, contact us and we shall immediately remove her. Files for an exchange on tracker are given by users of a site, and the administration does not bear the responsibility for their maintenance. The request to not fill in the files protected by copyrights, and also files of the illegal maintenance!