Суд над городом / Town on Trial (Джон Гиллермин / John Guillermin) [1957, Великобритания, детектив, фильм-нуар, DVDRip] VO + Sub Rus + Original Eng

DL-List and Torrent activity
Size:  1.46 GB   |    Registered:  2 years 9 months   |    Completed:  16 times
Seeders:  2  
 
   
 
 

erzsebet.org ®

Longevity:
2 years 9 months
Posts:
47596

[Quote] 

Суд над городом / Town on Trial
Страна: Великобритания
Студии: Columbia Pictures Corporation, Marksman Productions Ltd.
Жанр: детектив, фильм-нуар
Год выпуска: 1957
Продолжительность: 01:36:14
Перевод: Одноголосый закадровый - fiendover (Виктор Рутилов)
Субтитры: русские (перевод - karlivanovich)
Оригинальная аудиодорожка: английский
Режиссер: Джон Гиллермин / John Guillermin
Композитор: Тристрам Кэри / Tristram Cary
В ролях: Джон Миллз / John Mills ... Supt. Mike Halloran
Чарльз Коберн / Charles Coburn ... Dr. John Fenner
Барбара Бейтс / Barbara Bates ... Elizabeth Fenner
Дерек Фарр / Derek Farr ... Mark Roper
Алек МакКоуэн / Alec McCowen (в титрах: Alec Mc Cowen) ... Peter Crowley
Фэй Комптон / Fay Compton ... Mrs. Crowley
Джеффри Кин / Geoffrey Keen ... Charles Dixon
Маргаретта Скотт / Margaretta Scott ... Helen Dixon
Мередит Эдвардс / Meredith Edwards ... Sgt. Rogers
Гарри Лок / Harry Locke ... Sgt. Beale
Рэймонд Хантли / Raymond Huntley ... Dr. Reese
Гарри Фаулер / Harry Fowler ... Leslie (Bandleader)
Морин Коннелл / Maureen Connell ... Mary Roper
Магда Миллер / Magda Miller ... Molly Stevens

Описание: Когда обнаруживают задушенную чулком Молли Стивенс, подозрение падает на членов привилегированного теннисного клуба из маленького городка под Лондоном. Начальник местной полиции просит помощи у Скотланд-Ярда, поэтому детектив-суперинтендант Майк Хэллоран отправляется на расследование. Однако местные жители с возмущением встречают вторжение чужака в их личные дела. Тем более многим есть, что скрывать...--Фильмография Джона Миллза--БОЛЬШОЕ СПАСИБО:
Перевод фильма на русский - karlivanovich
Озвучивание фильма (по русским субтитрам) - fiendover (Виктор Рутилов)
Работа со звуком и реавторинг DVD - AlekceyR76
Также Большое Спасибо всем, кто принял участие в появлении перевода и озвучки к этому фильму:
Магда, Lafajet, jasenka, елена 22, yanaelisa, STICK24, voostorg, Ugo927, sindzi, old76, spartakeynoir, HippopotamusIV, cementit
--Сэмпл: https://www.sendspace.com/file/31m55c
Качество видео: DVDRip
Формат видео: AVI
Видео: XviD, 704x384 (1.83:1), 23.976 fps, 1773 Kbps
Аудио 1: AC3, 48.0 KHz, 2 ch., 192 Kbps (русский одноголосый закадровый перевод) - Виктор Рутилов
Аудио 2: AC3, 48.0 KHz, 2 ch., 192 Kbps (оригинальная английская звуковая дорожка)

MediaInfo

Общее
Полное имя : I:\раздачи\Town on Trial 1957\Town on Trial.avi
Формат : AVI
Формат/Информация : Audio Video Interleave
Размер файла : 1,46 Гбайт
Продолжительность : 1 ч. 36 м.
Общий поток : 2171 Кбит/сек
Программа кодирования : VirtualDubMod 1.5.10.3 | www.virtualdub-fr.org || (build 2550/release)
Библиотека кодирования : VirtualDubMod build 2550/release
Видео
Идентификатор : 0
Формат : MPEG-4 Visual
Профиль формата : Advanced [email protected]
Параметр BVOP формата : 2
Параметр QPel формата : Нет
Параметр GMC формата : Без точки перехода
Параметр матрицы формата : Default (H.263)
Идентификатор кодека : DX50
Идентификатор кодека/Подсказка : DivX 5
Продолжительность : 1 ч. 36 м.
Битрейт : 1773 Кбит/сек
Ширина : 704 пикселя
Высота : 384 пикселя
Соотношение сторон : 1,85:1
Частота кадров : 23,976 (24000/1001) кадра/сек
Цветовое пространство : YUV
Субдискретизация насыщенности : 4:2:0
Битовая глубина : 8 бит
Тип развёртки : Прогрессивная
Метод сжатия : С потерями
Бит/(Пиксели*Кадры) : 0.274
Размер потока : 1,19 Гбайт (82%)
Библиотека кодирования : XviD 73
Аудио #1
Идентификатор : 1
Формат : AC-3
Формат/Информация : Audio Coding 3
Параметр Endianness формата : Big
Идентификатор кодека : 2000
Продолжительность : 1 ч. 36 м.
Вид битрейта : Постоянный
Битрейт : 192 Кбит/сек
Каналы : 2 канала
Расположение каналов : Front: L R
Частота : 48,0 КГц
Частота кадров : 31,250 кадров/сек (1536 spf)
Битовая глубина : 16 бит
Метод сжатия : С потерями
Размер потока : 132 Мбайт (9%)
Выравнивание : Разделение по промежуткам
Продолжительность промежутка : 42 мс. (1,00 видеокадр)
Время предзагрузки промежутка : 500 мс.
ServiceKind/String : Complete Main
Аудио #2
Идентификатор : 2
Формат : AC-3
Формат/Информация : Audio Coding 3
Параметр Endianness формата : Big
Идентификатор кодека : 2000
Продолжительность : 1 ч. 36 м.
Вид битрейта : Постоянный
Битрейт : 192 Кбит/сек
Каналы : 2 канала
Расположение каналов : Front: L R
Частота : 48,0 КГц
Частота кадров : 31,250 кадров/сек (1536 spf)
Битовая глубина : 16 бит
Метод сжатия : С потерями
Размер потока : 132 Мбайт (9%)
Выравнивание : Разделение по промежуткам
Продолжительность промежутка : 42 мс. (1,00 видеокадр)
Время предзагрузки промежутка : 500 мс.
ServiceKind/String : Complete Main

Фрагмент русских субтитров

14
00:02:42,596 --> 00:02:47,800
Я бродил в одиночестве, пока
не оказался на станции.
15
00:02:47,878 --> 00:02:51,103
Я смотрел, как люди идут
на работу, но сам я...
16
00:02:51,128 --> 00:02:54,217
не показывался, потому что
многие там меня знали.
17
00:02:55,263 --> 00:03:02,380
Я провёл оставшееся время на ногах,
избегая людей, ожидая конца дня.
18
00:03:03,044 --> 00:03:08,926
У реки я пошёл за девушкой,
напоминавшей мне Молли.
19
00:03:09,509 --> 00:03:11,967
Я вдруг возненавидел её.
20
00:03:12,021 --> 00:03:14,747
Как я ненавидел Молли.
21
00:03:14,830 --> 00:03:17,282
В тот вечер когда
я вернулся домой,
22
00:03:17,307 --> 00:03:20,185
я достал из ящика чулок.
23
00:03:20,697 --> 00:03:23,178
Потом пошёл в клуб.
24
00:03:23,226 --> 00:03:27,566
Всё это время я
вспоминал Библию.
25
00:03:27,634 --> 00:03:30,567
Но я уже больше не боялся.
26
00:03:31,106 --> 00:03:35,040
Я знал, что Молли там, потому
что все на неё смотрели.
27
00:03:35,078 --> 00:03:40,451
И я был рад, потому что
это было в последний раз.
28
00:03:42,444 --> 00:03:46,299
Я смотрел, как она играет,
её тело покрывал загар.
29
00:03:46,469 --> 00:03:49,956
Я ненавидел её,
и вместе со мной...
30
00:03:50,255 --> 00:03:53,237
на неё смотрели и все
присутствовавшие,
31
00:03:53,300 --> 00:03:58,669
особенно мужчины, и она это
знала, и ей это нравилось.
32
00:03:59,320 --> 00:04:03,980
И всё это время я вспоминал
слова из Библии.
33
00:04:04,483 --> 00:04:08,633
"И стала Огола блудить от Меня и
пристрастилась к своим любовникам".
34
00:04:08,663 --> 00:04:16,857
"и пристрастилась к любовникам своим, и они
увидели распутство её и посекли её мечом".

If your ratio falls below 0.3, you will not be able to download Torrents! More about the rating.

[erzsebet.pl].t509.torrent
Torrent: Registered   [ 2017-12-02 16:56 ]

Download .torrent

Download

15 KB

Status: checked
Completed: 16 times
Size: 1.46 GB
terms.php

#1

02-Dec-2017 16:55

[Profile]  [PM] 
Display posts:    

You cannot post new topics in this forum
You cannot reply to topics in this forum
You cannot edit your posts in this forum
You cannot delete your posts in this forum
You cannot vote in polls in this forum
You cannot attach files in this forum
You can download files in this forum
User agreement
For copyright holders
Advertise on this site

Скачайте на халяву через торрент на трекере erzsebet.pl

!ATTENTION!
The site does not give electronic versions of products, and is engaged only in a collecting and cataloguing of the references sent and published at a forum by our readers. If you are the legal owner of any submitted material and do not wish that the reference to it was in our catalogue, contact us and we shall immediately remove her. Files for an exchange on tracker are given by users of a site, and the administration does not bear the responsibility for their maintenance. The request to not fill in the files protected by copyrights, and also files of the illegal maintenance!