Палач / The Hangman (Майкл Кёртиц / Michael Curtiz) [1959, США, вестерн, BDRip] DVO + Sub Rus + Original Eng

DL-List and Torrent activity
Size:  1.46 GB   |    Registered:  2 years 9 months   |    Completed:  16 times
Seeders:  10  
 
   
 
 

erzsebet.org ®

Longevity:
2 years 9 months
Posts:
47596

[Quote] 

Палач / The Hangman

Слоган: «He was a U.S. Marshal but the name they called him was ... The Hangman»
Страна: США
Студия: Paramount Pictures
Жанр: вестерн
Год выпуска: 1959
Продолжительность: 01:26:59
Перевод: Любительский (двухголосый закадровый) - Бахурани & Артем Мосин-Щепачев
Субтитры: русские(Максим Исаев & Алексей Alassea Крюков)
Оригинальная аудиодорожка: английский
Режиссер: Майкл Кёртиц / Michael Curtiz
В ролях: Роберт Тейлор, Тина Луиз, Фесс Паркер, Джек Лорд, Джин Эванс, Мики Шонесси, Ширли Хармер, Джеймс Уэстерфилд, Мэйбл Альбертсон, Jose Gonzales-Gonzales ...
Описание: Маккензи Бовард — заместитель маршала США, получивший от бандитов кличку Палач. Ему нужно, не имея особых примет, арестовать последнего обвиняемого в ограблении Уэллс Фарго. Вскоре в его поисках появляется первая зацепка — красавица Сэла, давняя знакомая преступника. Маккензи предлагает ей отправиться вместе с ним и за денежное вознаграждение опознать его, но та не хочет предавать друга. Однако Бовард настроен решительно: ему нужно во что бы то ни стало довести дело до конца.
Бонусы: Рип сделан из этого BDRemux 1080p.-- --Фильм переведен и озвучен специально для: 7букв Вестерн / группа Джесси Джеймса,
При участии ВК—группы Душевное кино.

Отдельная благодарность Alassea за предоставленную русскую звуковую дорожку и субтитры.
Перевод: Максим Исаев и Алексей Alassea Крюков.
Закадровый текст: Бахурани и Артем Мосин - Щепачев.--The Hangman_(1959)_BDRip_Sample_.avi--Качество видео: BDRip
Формат видео: AVI
Видео: 704x400 (1.76:1), 23.976 fps, XviD build 73 ~2008 kbps avg, 0.30 bit/pixel
Аудио 1: 48 kHz, AC3 Dolby Digital, 1/0 (C) ch, ~192 kbps, Русский
Аудио 2: 48 kHz, AC3 Dolby Digital, 1/0 (C) ch, ~192 kbps, Английский
Формат субтитров: softsub (SRT)

AviInfo

File: The Hangman_(1959)_BDRip_.avi
Title: The Hangman (1959)
Author: Michael Curtiz
Copyleft: Ripped_by_rjhlb777
Genre: Western
Category: Movie
Comment: DVO (Бахурани & Артем Мосин - Щепачев) + Original ENG
FileSize: 1498.07 Mb ( 1 570 836 480 bytes )
Play length: 01:26:59.219 (125136 frames)
Subtitles: RUS_(Maksim Isayev & Aleksey Alassea Kryukov)_ (SubRip format)
Video: 704x400 (1.76:1), 23.976 fps, XviD build 73 ~2008 kbps avg, 0.30 bit/pixel
Audio #1: 48 kHz, AC3 Dolby Digital, 1/0 (C) ch, ~192 kbps
Audio #2: 48 kHz, AC3 Dolby Digital, 1/0 (C) ch, ~192 kbps

MediaInfo

General
Complete name : I:\111\z_D_Disk\The Hangman_(1959)_BDRip_\The Hangman_(1959)_BDRip_.avi
Format : AVI
Format/Info : Audio Video Interleave
File size : 1.46 GiB
Duration : 1 h 26 min
Overall bit rate : 2 408 kb/s
Movie name : The Hangman (1959)
Director : Michael Curtiz
Genre : Western
Writing application : VirtualDubMod 1.5.10.3 | www.virtualdub-fr.org || (build 2550/release)
Original source form/Name : Movie
Copyright : Ripped_by_rjhlb777
Comment : DVO (Бахурани & Артем Мосин - Щепачев) + Original ENG
Video
ID : 0
Format : MPEG-4 Visual
Format profile : Advanced [email protected]
Format settings, BVOP : 2
Format settings, QPel : No
Format settings, GMC : No warppoints
Format settings, Matrix : Custom
Codec ID : XVID
Codec ID/Hint : XviD
Duration : 1 h 26 min
Bit rate : 2 009 kb/s
Width : 704 pixels
Height : 400 pixels
Display aspect ratio : 16:9
Frame rate : 23.976 (24000/1001) FPS
Color space : YUV
Chroma subsampling : 4:2:0
Bit depth : 8 bits
Scan type : Progressive
Compression mode : Lossy
Bits/(Pixel*Frame) : 0.298
Stream size : 1.22 GiB (83%)
Writing library : XviD 73
Audio #1
ID : 1
Format : AC-3
Format/Info : Audio Coding 3
Mode extension : CM (complete main)
Format settings, Endianness : Big
Codec ID : 2000
Duration : 1 h 26 min
Bit rate mode : Constant
Bit rate : 192 kb/s
Channel(s) : 1 channel
Channel positions : Front: C
Sampling rate : 48.0 kHz
Frame rate : 31.250 FPS (1536 spf)
Bit depth : 16 bits
Compression mode : Lossy
Stream size : 119 MiB (8%)
Alignment : Split accross interleaves
Interleave, duration : 42 ms (1.00 video frame)
Interleave, preload duratio : 500 ms
Audio #2
ID : 2
Format : AC-3
Format/Info : Audio Coding 3
Mode extension : CM (complete main)
Format settings, Endianness : Big
Codec ID : 2000
Duration : 1 h 26 min
Bit rate mode : Constant
Bit rate : 192 kb/s
Channel(s) : 1 channel
Channel positions : Front: C
Sampling rate : 48.0 kHz
Frame rate : 31.250 FPS (1536 spf)
Bit depth : 16 bits
Compression mode : Lossy
Stream size : 119 MiB (8%)
Alignment : Split accross interleaves
Interleave, duration : 42 ms (1.00 video frame)
Interleave, preload duratio : 500 ms

If your ratio falls below 0.3, you will not be able to download Torrents! More about the rating.

[erzsebet.pl].t510.torrent
Torrent: Registered   [ 2017-12-02 16:56 ]

Download .torrent

Download

15 KB

Status: checked
Completed: 16 times
Size: 1.46 GB
terms.php

#1

02-Dec-2017 16:55

[Profile]  [PM] 
Display posts:    

You cannot post new topics in this forum
You cannot reply to topics in this forum
You cannot edit your posts in this forum
You cannot delete your posts in this forum
You cannot vote in polls in this forum
You cannot attach files in this forum
You can download files in this forum
User agreement
For copyright holders
Advertise on this site

Скачайте на халяву через торрент на трекере erzsebet.pl

!ATTENTION!
The site does not give electronic versions of products, and is engaged only in a collecting and cataloguing of the references sent and published at a forum by our readers. If you are the legal owner of any submitted material and do not wish that the reference to it was in our catalogue, contact us and we shall immediately remove her. Files for an exchange on tracker are given by users of a site, and the administration does not bear the responsibility for their maintenance. The request to not fill in the files protected by copyrights, and also files of the illegal maintenance!