Крамер против Крамера / Kramer vs. Kramer (Роберт Бентон / Robert Benton) [1979, США, драма, Telesync > DVD] [Советская прокатная копия] Dub (Ленфильм)

DL-List and Torrent activity
Size:  3.89 GB   |    Registered:  2 years 9 months   |    Completed:  16 times
Seeders:  2  
 
   
 
 

erzsebet.org ®

Longevity:
2 years 9 months
Posts:
47596

[Quote] 

Крамер против Крамера / Kramer vs. Kramer [Советская прокатная копия]- Страна: США
Жанр: драма
Год выпуска: 1979
Продолжительность: 01:30:53-Перевод: Профессиональный (дублированный) - Киностудия "Ленфильм"
Субтитры: нет-Режиссер: Роберт Бентон / Robert Benton
В ролях: Дастин Хоффман, Мэрил Стрип, Джейн Александр, Джастин Генри, Говард Дафф, Джордж Коу, ДжоБет Уильямс, Билл Моор, Хоуланд Чемберлен, Джек Рэмэдж- | Релиз: -Описание: Тед Крамер, целиком посвятив себя карьере, не замечает того, что происходит в собственной семье. Поэтому от него уходит жена, оставляя незадачливого отца заботиться о шестилетнем сыне.
Теперь Крамер старший должен выступить в непривычной роли: ему предстоит ухаживать за Крамером младшим, проводить с ним больше времени и, наконец, попытаться проникнуть в хрупкий и ранимый мир ребенка. Но в тот момент, когда отец и сын становятся настоящими друзьями, раскаявшаяся мать возвращается. И она хочет забрать мальчика.-Семпл: http://sendfile.su/1349457-Тип релиза: Telesync
Контейнер: DVD-Video
Видео: 704x576 (4:3), 25.000 fps, MPEG-2 Video, ~5743 Kbps, 0.566 bits/pixel
Аудио: Русский, 48.0 KHz, AC3, 2 ch, 256 Kbps

DVDInfo

Title: Крамер против Крамера 1979 Dub Ленфильм
Size: 3.89 Gb ( 4 075 850,00 KBytes ) - DVD-5
Enabled regions: 1, 2, 3, 4, 5, 6, 7, 8
VTS_01 :
Play Length: 01:30:53
Video: PAL 4:3 (704x576) VBR
Audio:
Russian, AC3, 2/0 (L,R) ch, 256 kbps, Delay 0 mSec

MediaInfo

General
Complete name : \Крамер против Крамера 1979 Dub Ленфильм\VIDEO_TS\VTS_01_1.VOB
Format : MPEG-PS
File size : 1 024 MiB
Duration : 23 min 23 s
Overall bit rate mode : Variable
Overall bit rate : 6 121 kb/s
Video
ID : 224 (0xE0)
Format : MPEG Video
Format version : Version 2
Format profile : [email protected]
Format settings, BVOP : Yes
Format settings, Matrix : Default
Format settings, GOP : M=3, N=12
Format settings, picture structure : Frame
Duration : 23 min 23 s
Bit rate mode : Variable
Bit rate : 5 743 kb/s
Maximum bit rate : 9 579 kb/s
Width : 704 pixels
Height : 576 pixels
Display aspect ratio : 4:3
Frame rate : 25.000 FPS
Standard : PAL
Color space : YUV
Chroma subsampling : 4:2:0
Bit depth : 8 bits
Scan type : Interlaced
Scan order : Top Field First
Compression mode : Lossy
Bits/(Pixel*Frame) : 0.566
Time code of first frame : 00:00:00:00
Time code source : Group of pictures header
GOP, Open/Closed : Open
GOP, Open/Closed of first frame : Closed
Stream size : 961 MiB (94%)
Color primaries : BT.601 PAL
Transfer characteristics : BT.470 System B, BT.470 System G
Matrix coefficients : BT.601
Audio
ID : 189 (0xBD)-128 (0x80)
Format : AC-3
Format/Info : Audio Coding 3
Format settings, Endianness : Big
Muxing mode : DVD-Video
Duration : 23 min 23 s
Bit rate mode : Constant
Bit rate : 256 kb/s
Channel(s) : 2 channels
Channel positions : Front: L R
Sampling rate : 48.0 kHz
Frame rate : 31.250 FPS (1536 SPF)
Bit depth : 16 bits
Compression mode : Lossy
Stream size : 42.8 MiB (4%)
Service kind : Complete Main
Menu

If your ratio falls below 0.3, you will not be able to download Torrents! More about the rating.

[erzsebet.pl].t520.torrent
Torrent: Registered   [ 2017-12-02 16:56 ]

Download .torrent

Download

20 KB

Status: checked
Completed: 16 times
Size: 3.89 GB
terms.php

#1

02-Dec-2017 16:55

[Profile]  [PM] 
Display posts:    

You cannot post new topics in this forum
You cannot reply to topics in this forum
You cannot edit your posts in this forum
You cannot delete your posts in this forum
You cannot vote in polls in this forum
You cannot attach files in this forum
You can download files in this forum
User agreement
For copyright holders
Advertise on this site

Скачайте на халяву через торрент на трекере erzsebet.pl

!ATTENTION!
The site does not give electronic versions of products, and is engaged only in a collecting and cataloguing of the references sent and published at a forum by our readers. If you are the legal owner of any submitted material and do not wish that the reference to it was in our catalogue, contact us and we shall immediately remove her. Files for an exchange on tracker are given by users of a site, and the administration does not bear the responsibility for their maintenance. The request to not fill in the files protected by copyrights, and also files of the illegal maintenance!