Юго-западный переход / Southwest Passage (Рэй Назарро / Ray Nazarro) [1954, США, вестерн, приключения, HDTVRip] DVO (НТВ+)

DL-List and Torrent activity
Size:  1.09 GB   |    Registered:  2 years 9 months   |    Completed:  16 times
Seeders:  3   Leechers:  1   Show peers in full details
 
   
 
 

erzsebet.org ®

Longevity:
2 years 9 months
Posts:
47596

[Quote] 

Юго-западный переход / Southwest Passage Страна: США
Жанр: вестерн, приключения
Год выпуска: 1954
Продолжительность: 01:12:05
Перевод: Профессиональный (двухголосый закадровый) НТВ+
Текст читали: Наталья Казначеева, Александр Воронов
Субтитры: нет
Оригинальная аудиодорожка: нет
Режиссер: Рэй Назарро / Ray Nazarro
В ролях: Род Камерон, Джоэнн Дрю, Джон Айрленд, Джон Денер, Гуинн «Биг бой» Уильямс, Дэррил Хикман, Стюарт Рэндолл, Марк Ханна, Дуглас Фоули, Моррис Анкрум, Стэнли Эндрюс, Кеннет МакДональд, Хэнк Паттерсон
Описание: 1850-е годы. Выдающий себя за врача грабитель банка Клинт МакДональд (Джон Айрленд) вместе с возлюбленной Лили (Джоэнн Дрю) и награбленными 20 тысячами долларов золотом, присоединяется к каравану, возглавляемому верблюдом Эдварда Била (Род Камерон). Последний пытается проложить на запад более короткий маршрут для американской кавалерии, с территории Арканзас через пустыни Нью-Мексико в Калифорнию, и выяснить насколько полезны в этом путешествии верблюды, используемые как вьючные животные. Но экспедиция находится под угрозой гибели, из-за действий лжедоктора МакДональда, постоянного поиска питьевой воды и нападения враждебных индейцев апачи...
Доп. информация: Собственный рип. За исходник HDTV (запись с канала MGM HD) спасибо tahiy.
Сэмпл: http://multi-up.com/1161698
Качество видео: HDTVRip
Формат видео: AVI
Видео: XviD, 720x400 (16:9), 25.000 fps, 1972 kbps avg
Аудио: Russian AC3 Dolby Digital, 48 kHz, 2/0 (L,R) ch, 192.00 kbps avg

MediaInfo

General
Complete name : E:\Southwest Passage.1954\Southwest.Passage.1954.HDTVRip.DVO.NTV+.smit009.avi
Format : AVI
Format/Info : Audio Video Interleave
File size : 1.09 GiB
Duration : 1 h 12 min
Overall bit rate : 2 174 kb/s
Writing application : VirtualDubMod 1.5.10.3 | www.virtualdub-fr.org || (build 2550/release)
Writing library : VirtualDubMod build 2550/release
Video
ID : 0
Format : MPEG-4 Visual
Format profile : Advanced [email protected]
Format settings, BVOP : 1
Format settings, QPel : No
Format settings, GMC : No warppoints
Format settings, Matrix : Custom
Codec ID : XVID
Codec ID/Hint : XviD
Duration : 1 h 12 min
Bit rate : 1 972 kb/s
Width : 720 pixels
Height : 400 pixels
Display aspect ratio : 16:9
Frame rate : 25.000 FPS
Color space : YUV
Chroma subsampling : 4:2:0
Bit depth : 8 bits
Scan type : Progressive
Compression mode : Lossy
Bits/(Pixel*Frame) : 0.274
Stream size : 1 017 MiB (91%)
Writing library : XviD 73
Audio
ID : 1
Format : AC-3
Format/Info : Audio Coding 3
Format settings, Endianness : Big
Codec ID : 2000
Duration : 1 h 12 min
Bit rate mode : Constant
Bit rate : 192 kb/s
Channel(s) : 2 channels
Channel positions : Front: L R
Sampling rate : 48.0 kHz
Frame rate : 31.250 FPS (1536 spf)
Bit depth : 16 bits
Compression mode : Lossy
Stream size : 99.0 MiB (9%)
Alignment : Split accross interleaves
Interleave, duration : 40 ms (1.00 video frame)
Interleave, preload duratio : 500 ms
Service kind : Complete Main

Скриншоты

If your ratio falls below 0.3, you will not be able to download Torrents! More about the rating.

[erzsebet.pl].t533.torrent
Torrent: Registered   [ 2017-12-02 16:56 ]

Download .torrent

Download

11 KB

Status: checked
Completed: 16 times
Size: 1.09 GB
terms.php

#1

02-Dec-2017 16:55

[Profile]  [PM] 
Display posts:    

You cannot post new topics in this forum
You cannot reply to topics in this forum
You cannot edit your posts in this forum
You cannot delete your posts in this forum
You cannot vote in polls in this forum
You cannot attach files in this forum
You can download files in this forum
User agreement
For copyright holders
Advertise on this site

Скачайте на халяву через торрент на трекере erzsebet.pl

!ATTENTION!
The site does not give electronic versions of products, and is engaged only in a collecting and cataloguing of the references sent and published at a forum by our readers. If you are the legal owner of any submitted material and do not wish that the reference to it was in our catalogue, contact us and we shall immediately remove her. Files for an exchange on tracker are given by users of a site, and the administration does not bear the responsibility for their maintenance. The request to not fill in the files protected by copyrights, and also files of the illegal maintenance!