Тридцать секунд над Токио / Thirty Seconds Over Tokyo (Мервин ЛеРой / Mervyn LeRoy) [1944, США, драма, исторический, военный, DVDRip]

DL-List and Torrent activity
Size:  1.46 GB   |    Registered:  2 years 9 months   |    Completed:  16 times
Seeders:  6  
 
   
 
 

erzsebet.org ®

Longevity:
2 years 9 months
Posts:
47596

[Quote] 

Тридцать секунд над Токио / Thirty Seconds Over Tokyo
Год выпуска: 1944
Страна: США
Жанр: драма, исторический, военный
Продолжительность: 02:18:14
Перевод: профессиональный (многоголосый, закадровый)
Русские субтитры: нет
Режиссёр: Мервин ЛеРой /Mervyn LeRoy/
В ролях: Ван Джонсон /Van Johnson/, Роберт Уокер /Robert Walker/, Спенсер Трэйси /Spencer Tracy/, Роберт Митчэм /Robert Mitchum/, Tim Murdock /Тим Мардок/, Скотт МакКей /Scott McKay/, Херберт Гунн /Herbert Gunn/, Дон ДеФор /Don DeFore/, Джон Р. Рейлли /John R. Reilly/, Стивен МакНолли /Stephen McNally/
Описание: Драматическая история рейда американских ВВС на Японию в годы Второй Мировой войны. Сюжет основан на реальных событиях, вошедших в историю как «Рейд Дулиттла». Ошарашенная событиями в Перл-Харборе и серией неудач в Европе, Америка нуждается в крупной победе. Бывший пилот-ас полковник Джимми Дулиттл разрабатывает план рискованнейшей операции — авиарейда в Японию. Для этого ему необходимо набрать и обучить отряд пилотов, а самое главное — совершить почти невозможное, запустить с авианосца 16 полностью вооружённых бомбардировщиков…
Примечания: Первый авианалёт («Рейд Дулиттла» / “Doolittle Raid”) на Японию состоялся 18 апреля 1942 года, когда 16 самолётов B-25 Mitchell, поднявшихся с авианосца USS Hornet, атаковали Иокогаму и Токио. После атаки самолёты должны были приземлиться на аэродромах в Китае, однако ни один из них не долетел места посадки. Все они разбились или затонули, за исключением одного, который приземлился на территории СССР и экипаж которого был интернирован на Родину. Экипажи двух машин были взяты в плен японскими войсками.
[box=#000000,#FFFFFF]КиноПоиск[/box][box=#000000,#FFFFFF]IMDb[/box]
Качество: DVDRip
Формат: AVI
Видео кодек: XviD
Аудио кодек: MP3
Видео: XviD 576x432 23.98fps 1238Kbps
Аудио #1: Русский, MPEG Audio Layer 3 48000Hz stereo 128Kbps
Аудио #2: Английский, MPEG Audio Layer 3 48000Hz stereo 128Kbps
Размер: 1491MB (1564281378 bytes) 1/3 DVD

MediaInfo

Общее
Полное имя : 30.sekund.nad.Tokio.(DVDRip,XviD,Rus,Eng).HeDgEhOt.&.FenixClub.avi
Формат : AVI
Формат/Информация : Audio Video Interleave
Размер файла : 1,46 Гбайт
Продолжительность : 2 ч. 18 м.
Общий поток : 1509 Кбит/сек
Название фильма : 30 секунд над Токио / Thirty Seconds Over Tokyo (1944)
Правообладатель : HeDgEhOt® & FenixClub
Видео
Идентификатор : 0
Формат : MPEG-4 Visual
Профиль формата : Advanced [email protected]
Параметр BVOP формата : 1
Параметр QPel формата : Нет
Параметр GMC формата : Без точки перехода
Параметр матрицы формата : Выборочная
Режим смешивания : Сжатый битовый поток
Идентификатор кодека : XVID
Идентификатор кодека/Подсказка : XviD
Продолжительность : 2 ч. 18 м.
Битрейт : 1239 Кбит/сек
Ширина : 576 пикселей
Высота : 432 пикселя
Соотношение сторон : 4:3
Частота кадров : 23,976 кадра/сек
Цветовое пространство : YUV
Субдискретизация насыщенности : 4:2:0
Битовая глубина : 8 бит
Тип развёртки : Прогрессивная
Метод сжатия : С потерями
Бит/(Пиксели*Кадры) : 0.208
Размер потока : 1,20 Гбайт (82%)
Библиотека кодирования : XviD 1.1.2 (UTC 2006-11-01)
Аудио #1
Идентификатор : 1
Формат : MPEG Audio
Версия формата : Version 1
Профиль формата : Layer 3
Режим : Joint stereo
Расширение режима : MS Stereo
Идентификатор кодека : 55
Идентификатор кодека/Подсказка : MP3
Продолжительность : 2 ч. 18 м.
Вид битрейта : Постоянный
Битрейт : 128 Кбит/сек
Каналы : 2 канала
Частота : 48,0 КГц
Метод сжатия : С потерями
Размер потока : 127 Мбайт (8%)
Выравнивание : Соединение по промежуткам
Продолжительность промежутка : 42 мс. (1,00 видеокадр)
Время предзагрузки промежутка : 504 мс.
Язык : Русский / English
Аудио #2
Идентификатор : 2
Формат : MPEG Audio
Версия формата : Version 1
Профиль формата : Layer 3
Режим : Joint stereo
Расширение режима : MS Stereo
Идентификатор кодека : 55
Идентификатор кодека/Подсказка : MP3
Продолжительность : 2 ч. 18 м.
Вид битрейта : Постоянный
Битрейт : 128 Кбит/сек
Каналы : 2 канала
Частота : 48,0 КГц
Метод сжатия : С потерями
Размер потока : 127 Мбайт (8%)
Выравнивание : Соединение по промежуткам
Продолжительность промежутка : 42 мс. (1,00 видеокадр)
Время предзагрузки промежутка : 504 мс.
Библиотека кодирования : LAME3.97b
Настройки программы : -m j -V 4 -q 2 -lowpass 17 -b 128

Скриншоты

Внимание! Торрент-файл перезалит 16.07.2017 без изменения содержимого раздачи в связи с просьбой администрации снять флаг «приватная раздача». Скачавшим ранее просьба перекачать торрент-файл, перехешировать содержимое и присоединиться к раздаче.

If your ratio falls below 0.3, you will not be able to download Torrents! More about the rating.

[erzsebet.pl].t534.torrent
Torrent: Registered   [ 2017-12-02 16:56 ]

Download .torrent

Download

15 KB

Status: checked
Completed: 16 times
Size: 1.46 GB
terms.php

#1

02-Dec-2017 16:55

[Profile]  [PM] 
Display posts:    

You cannot post new topics in this forum
You cannot reply to topics in this forum
You cannot edit your posts in this forum
You cannot delete your posts in this forum
You cannot vote in polls in this forum
You cannot attach files in this forum
You can download files in this forum
User agreement
For copyright holders
Advertise on this site

Скачайте на халяву через торрент на трекере erzsebet.pl

!ATTENTION!
The site does not give electronic versions of products, and is engaged only in a collecting and cataloguing of the references sent and published at a forum by our readers. If you are the legal owner of any submitted material and do not wish that the reference to it was in our catalogue, contact us and we shall immediately remove her. Files for an exchange on tracker are given by users of a site, and the administration does not bear the responsibility for their maintenance. The request to not fill in the files protected by copyrights, and also files of the illegal maintenance!