Пока ты со мной / Solange Du da bist / As Long as You're Near Me (Харальд Браун / Harald Braun) [1953, ФРГ, драма, TVRip-AVC] MVO (ТВЦентр) + Original Ger

DL-List and Torrent activity
Size:  1.37 GB   |    Registered:  2 years 9 months   |    Completed:  16 times
Seeders:  3  
 
   
 
 

erzsebet.org ®

Longevity:
2 years 9 months
Posts:
47596

[Quote] 

Пока ты со мной / Solange Du da bist / As Long as You're Near Me
Жанр: Драма
Страна: Германия (ФРГ)
Студия: N.D.F.-Produktion
Год выпуска: 1953
Продолжительность: 01:34:57
Перевод: Профессиональный (многоголосый закадровый) - ТВЦентр
Субтитры: нет
Оригинальная аудиодорожка: немецкий
Режиссер: Харальд Браун / Harald Braun
В ролях:
Мария Шелл / Maria Schell ... Эва Бергер / Eva Berger
Отто Вильгельм Фишер / Otto Wilhelm Fischer ... Франк Торнау / Frank Tornau
Харди Крюгер / Hardy Krüger ... Штефан Бергер / Stefan Berger
Бригитта Хорней / Brigitte Horney ... Мона Арендт / Mona Arendt
Матиас Виман / Mathias Wieman ... Пауль, автор сценария / Paul, der Autor
Пауль Бильдт / Paul Bildt ... Банкир Бенц / Bankier Bentz
Вальтер Рихтер / Walter Richter ... Вилли / Willi
Лизль Карлштадт / Liesl Karlstadt ... костюмер / Die Garderobiere
Рольф Ассель / Rolf Assel ...
Хайнц Бек / Heinz Beck ...
Эрна Гроссманн / Erna Großmann ...
Хайни Гёбель / Heini Göbel ...
Ганс Хенн / Hans Henn ...
Вальтер Хольтен / Walter Holten ...
Михаэль Ленц / Michael Lenz ...
Вольфганг Моландер / Wolfgang Molander
Описание: Эва и Штефан любили друг друга, были счастливы, хотя и жили очень бедно. Эва работала статисткой на киностудии. Режиссер Франк Торнау заинтересовался судьбой Эвы и решил поставить фильм о ее жизни. Главную роль в нем будет исполнять сама Эва. Работа над фильмом и особенно внимание режиссера настолько увлекли молодую женщину, что ее прежняя жизнь и любовь Штефана стали ей в тягость. В заключительной сцене Эва должна показать тот страшный час из своей жизни, когда она временно потеряла Штефана. Эва играет очень искренне, она вновь переживает эти страшные мгновения и вдруг, увидев в толпе Штефана, ясно сознает, что по-настоящему она любит только его и, несмотря на бедность, счастлива будет только с ним…
Дополнительная информация: Релиз:
Исходник найден в сети.
Автор рипа: pmv
Большое спасибо за:
- Аудиодорожку с многоголосой озвучкой - minivik (Феникс)
- Cинхронизацию звука - pmv
* Эта западногерманская картина считается одним из лучших фильмов 50-х – 60-х годов. Она отражает ту насыщенную послевоенную эпоху, полную надежд и романтики, и по праву стоит в одном ряду с неореалистическими итальянскими фильмам, такими, например, как мелодраматическим «Дайте мужа Анне Дзаккео» (в прокате в СССР «Утраченные грёзы») или с сентиментальными историями, полными французского шарма («Полуночные любовники» / «Разбитые мечты»).
* Фильм был номинирован на Гран-при Каннского кинофестиваля в 1954 году.
IMDb = 7,1/10 (43) - http://www.imdb.com/title/tt0046340
Кинопоиск = - (17) - https://www.kinopoisk.ru/film/86236/
Качество видео: TVRip-AVC
Формат видео: MKV
Видео: AVC (H264), [email protected] (1.30:1), 25 fps, 1650 kbps, 0.167 Bits/Pixel
Аудио #1: AC3, 48 KHz, stereo (2 ch), 224 kbps - русский
Аудио #2: AC3, 48 KHz, stereo (2 ch), 192 kbps - немецкий

MediaInfo

General
Unique ID : 219993264227897936547744052528170878933 (0xA5812958FB44AF9FB0A375D8888747D5)
Complete name : D:\torrents\Solange Du da bist (1953, rus_MVO+ger).mkv
Format : Matroska
Format version : Version 4 / Version 2
File size : 1.37 GiB
Duration : 1 h 34 min
Overall bit rate : 2 068 kb/s
Encoded date : UTC 2017-07-13 05:12:37
Writing application : mkvmerge v13.0.0 ('The Juggler') 64bit
Writing library : libebml v1.3.4 + libmatroska v1.4.5
Video
ID : 1
Format : AVC
Format/Info : Advanced Video Codec
Format profile : [email protected]
Format settings, CABAC : Yes
Format settings, ReFrames : 16 frames
Codec ID : V_MPEG4/ISO/AVC
Duration : 1 h 34 min
Bit rate : 1 650 kb/s
Width : 688 pixels
Height : 576 pixels
Display aspect ratio : 4:3
Original display aspect ratio : 1.194
Frame rate mode : Constant
Frame rate : 25.000 FPS
Color space : YUV
Chroma subsampling : 4:2:0
Bit depth : 8 bits
Scan type : Progressive
Bits/(Pixel*Frame) : 0.167
Stream size : 1.09 GiB (80%)
Writing library : x264 core 146 r2538 121396c
Encoding settings : cabac=1 / ref=16 / deblock=1:0:0 / analyse=0x3:0x133 / me=umh / subme=10 / psy=1 / psy_rd=1.00:0.00 / mixed_ref=1 / me_range=24 / chroma_me=1 / trellis=2 / 8x8dct=1 / cqm=0 / deadzone=21,11 / fast_pskip=1 / chroma_qp_offset=-2 / threads=48 / lookahead_threads=4 / sliced_threads=0 / nr=0 / decimate=1 / interlaced=0 / bluray_compat=0 / constrained_intra=0 / bframes=8 / b_pyramid=2 / b_adapt=2 / b_bias=0 / direct=3 / weightb=1 / open_gop=0 / weightp=2 / keyint=250 / keyint_min=25 / scenecut=40 / intra_refresh=0 / rc_lookahead=60 / rc=2pass / mbtree=1 / bitrate=1650 / ratetol=1.0 / qcomp=0.60 / qpmin=0 / qpmax=69 / qpstep=4 / cplxblur=20.0 / qblur=0.5 / ip_ratio=1.40 / aq=1:1.00
Language : German
Default : Yes
Forced : No
Audio #1
ID : 2
Format : AC-3
Format/Info : Audio Coding 3
Mode extension : CM (complete main)
Format settings, Endianness : Big
Codec ID : A_AC3
Duration : 1 h 34 min
Bit rate mode : Constant
Bit rate : 224 kb/s
Channel(s) : 2 channels
Channel positions : Front: L R
Sampling rate : 48.0 kHz
Frame rate : 31.250 FPS (1536 spf)
Bit depth : 16 bits
Compression mode : Lossy
Stream size : 152 MiB (11%)
Language : Russian
Default : Yes
Forced : No
Audio #2
ID : 3
Format : AC-3
Format/Info : Audio Coding 3
Mode extension : CM (complete main)
Format settings, Endianness : Big
Codec ID : A_AC3
Duration : 1 h 34 min
Bit rate mode : Constant
Bit rate : 192 kb/s
Channel(s) : 2 channels
Channel positions : Front: L R
Sampling rate : 48.0 kHz
Frame rate : 31.250 FPS (1536 spf)
Bit depth : 16 bits
Compression mode : Lossy
Stream size : 130 MiB (9%)
Language : German
Default : No
Forced : No

Скриншот c названием фильма

Сравнение с раздачей Rusalochka от 18-Марта-2010

TVRip, avi, 688x520, 1.34 Gb < > TVRip, mkv, 749x576, 1.37 Gb
http://erzsebet.org/forum/viewtopic.php?t=2834011
http://screenshotcomparison.com/comparison/215668
МОИ РАЗДАЧИ НА РУТРЕКЕРЕ: http://erzsebet.org/forum/tracker.php?rid=27390064

If your ratio falls below 0.3, you will not be able to download Torrents! More about the rating.

[erzsebet.pl].t540.torrent
Torrent: Registered   [ 2017-12-02 16:56 ]

Download .torrent

Download

14 KB

Status: checked
Completed: 16 times
Size: 1.37 GB
terms.php

#1

02-Dec-2017 16:55

[Profile]  [PM] 
Display posts:    

You cannot post new topics in this forum
You cannot reply to topics in this forum
You cannot edit your posts in this forum
You cannot delete your posts in this forum
You cannot vote in polls in this forum
You cannot attach files in this forum
You can download files in this forum
User agreement
For copyright holders
Advertise on this site

Скачайте на халяву через торрент на трекере erzsebet.pl

!ATTENTION!
The site does not give electronic versions of products, and is engaged only in a collecting and cataloguing of the references sent and published at a forum by our readers. If you are the legal owner of any submitted material and do not wish that the reference to it was in our catalogue, contact us and we shall immediately remove her. Files for an exchange on tracker are given by users of a site, and the administration does not bear the responsibility for their maintenance. The request to not fill in the files protected by copyrights, and also files of the illegal maintenance!