Мистер Вонг в Китайском квартале / Mr. Wong in Chinatown (Уильям Най / William Nigh) [1939, США, детектив, DVDRip] Sub Rus + Original Eng

DL-List and Torrent activity
Size:  1.01 GB   |    Registered:  2 years 9 months   |    Completed:  16 times
Seeders:  1  
 
   
 
 

erzsebet.org ®

Longevity:
2 years 9 months
Posts:
47596

[Quote] 

Мистер Вонг в Китайском квартале / Mr. Wong in Chinatown
Страна: США
Жанр: детектив
Год выпуска: 1939
Продолжительность: 1:10:34
Перевод: Субтитры (Serveladkin)
Субтитры: русские
Оригинальная аудиодорожка: английский
Режиссер: Уильям Най / William Nigh
В ролях: Борис Карлофф, Марджори Рейнольдс, Грант Уиттерс, Хантли Гордон, Джордж Линн, Уильям Ройл, Джеймс Флавин, Лотус Лонг, Ли Танг Фу, Бесси Лу, Ричард Лу, Эрни Стэнтон, А. Стэнфорд Джолли, Джек Кеннеди, Дэннис Керр, Вилбур Мак, Мой Минг, Брюс Митчелл, Анджело Росситто
Описание: Отравленная стрела убивает молодую китаянку, которая пришла за помощью к известному сыщику Джеймсу Ли Вонгу, прямо у него в приемной. Перед смертью она успевает написать на клочке бумаги слова «Капитан Джей». Мистер Вонг берется за расследование и находит двух капитанов, чье имя начинается на «Джей». Теперь предстоит узнать, кто из них убийца.

Доп. информация:
Фильмография Бориса Карлоффа
Качество видео: DVDRip (by [email protected])
Формат видео: AVI
Видео: 640x480 (1.33:1), 23.976 fps, XviD build 64 ~1844 kbps avg, 0.25 bit/pixel
Аудио: 48 kHz, AC3 Dolby Digital, 1/0 (C) ch, ~192 kbps
Формат субтитров: softsub (SRT)

Мистер Вонг на рутрекере

Джеймс Ли Вонг (или просто мистер Вонг) - вымышленный китайско-американский детектив, герой 12 рассказов Хью Уили (1884-1968), опубликованных в журнале "Collier's" с 1934 по 1938 год, и серии фильмов. В рассказах Вонг описан как закончивший Йельский университет, "с лицом иноземного дьявола-янки", ростом шесть футов, агент Министерства финансов Соединенных Штатов, проживающий в Сан-Франциско. Мистер Вонг появился в серии из шести фильмов для Monogram Pictures с 1938 по 1940 год. В пяти фильмах в главной роли снялся Борис Карлофф, в шестом - Кей Люк.
  • Мистер Вонг, детектив / Mr. Wong, Detective (1938) - Борис Карлофф
  • Тайна мистера Вонга / The Mystery of Mr. Wong (1939) - Борис Карлофф
  • Мистер Вонг в Китайском квартале / Mr. Wong in Chinatown (1939) - Борис Карлофф
  • Роковой час / Смертельный час / The Fatal Hour (1940) - Борис Карлофф
  • Обреченный на смерть / Doomed to Die (1940) - Борис Карлофф
  • Призрак Китайского квартала / Phantom of Chinatown (1940) - Кей Люк
  • ОГРОМНОЕ СПАСИБО Serveladkin за перевод

    MediaInfo

    Общее
    Полное имя : ...\Mr. Wong in Chinatown (1939).avi
    Формат : AVI
    Формат/Информация : Audio Video Interleave
    Размер файла : 1,01 Гбайт
    Продолжительность : 1 ч. 10 м.
    Общий поток : 2046 Кбит/сек
    Программа кодирования : VirtualDubMod 1.5.10.2 (build 2540/release)
    Библиотека кодирования : VirtualDubMod build 2540/release
    Видео
    Идентификатор : 0
    Формат : MPEG-4 Visual
    Профиль формата : Advanced [email protected]
    Параметр BVOP формата : 2
    Параметр QPel формата : Нет
    Параметр GMC формата : Без точки перехода
    Параметр матрицы формата : Default (MPEG)
    Идентификатор кодека : XVID
    Идентификатор кодека/Подсказка : XviD
    Продолжительность : 1 ч. 10 м.
    Битрейт : 1844 Кбит/сек
    Ширина : 640 пикселей
    Высота : 480 пикселей
    Соотношение сторон : 4:3
    Частота кадров : 23,976 (24000/1001) кадра/сек
    Цветовое пространство : YUV
    Субдискретизация насыщенности : 4:2:0
    Битовая глубина : 8 бит
    Тип развёртки : Прогрессивная
    Метод сжатия : С потерями
    Бит/(Пиксели*Кадры) : 0.250
    Размер потока : 931 Мбайт (90%)
    Библиотека кодирования : XviD 64
    Аудио
    Идентификатор : 1
    Формат : AC-3
    Формат/Информация : Audio Coding 3
    Параметр Endianness формата : Big
    Идентификатор кодека : 2000
    Продолжительность : 1 ч. 10 м.
    Вид битрейта : Постоянный
    Битрейт : 192 Кбит/сек
    Каналы : 1 канал
    Расположение каналов : Front: C
    Частота : 48,0 КГц
    Частота кадров : 31,250 кадров/сек (1536 spf)
    Битовая глубина : 16 бит
    Метод сжатия : С потерями
    Размер потока : 96,9 Мбайт (9%)
    Выравнивание : Разделение по промежуткам
    Продолжительность промежутка : 42 мс. (1,00 видеокадр)
    Время предзагрузки промежутка : 500 мс.
    ServiceKind/String : Complete Main

    Скриншоты

    Фрагмент субтитров

    389
    00:34:52,680 --> 00:34:55,780
    Не знаю, для чего вы следили за мной,
    но определенно я очень благодарен.
    390
    00:34:55,880 --> 00:34:58,520
    Эти такси никого
    больше сюда не возит.
    391
    00:34:58,640 --> 00:35:01,700
    Три месяца назад их закрыли,
    я писала об этом статью.
    392
    00:35:02,360 --> 00:35:05,200
    - Тот водитель...
    - Он побежал сюда!
    393
    00:35:06,100 --> 00:35:09,320
    - Вы не уйдете, пока я не вернусь?
    - Ни в коем случае.
    394
    00:35:28,580 --> 00:35:30,700
    Алло, городское бюро?
    395
    00:35:31,340 --> 00:35:35,400
    Покушение на жизнь Джеймса Ли Вонга,
    известного китайского детектива,
    396
    00:35:35,520 --> 00:35:37,240
    ...было совершено сегодня
    незадолго до полудня.
    397
    00:35:37,320 --> 00:35:40,860
    Его вытащили из светлого седана,
    замаскированного под такси,
    398
    00:35:40,940 --> 00:35:43,560
    ...за мгновение до того,
    как там взорвалась бомба.
    399
    00:35:43,760 --> 00:35:48,780
    Спасение произошло благодаря мисс
    Роберте Логан, репортеру "Геральд".
    400
    00:35:48,900 --> 00:35:50,300
    Да, так и есть.
    401
    00:35:50,440 --> 00:35:52,000
    Нет, я не шучу!
    402
    00:35:57,440 --> 00:35:59,000
    Что тут произошло?
    403
    00:35:59,100 --> 00:36:00,840
    О, привет, Вонг.
    Что случилось?
    404
    00:36:00,940 --> 00:36:04,180
    Очевидно, кто-то организовал
    для меня небольшой сюрприз.
    405
    00:36:05,380 --> 00:36:07,860
    Определенно похоже на то.
    Реальная штука.
    406
    00:36:07,960 --> 00:36:10,540
    Если бы не мисс Логан, меня бы уже...
    407
    00:36:10,680 --> 00:36:12,020
    Это уж точно.
    408
    00:36:12,140 --> 00:36:14,400
    Водитель убежал в переулок.
    Теперь он уже скрылся.

    If your ratio falls below 0.3, you will not be able to download Torrents! More about the rating.

    [erzsebet.pl].t55.torrent
    Torrent: Registered   [ 2017-12-02 15:58 ]

    Download .torrent

    Download

    11 KB

    Status: checked
    Completed: 16 times
    Size: 1.01 GB
    terms.php

    #1

    02-Dec-2017 15:57

    [Profile]  [PM] 
    Display posts:    

    You cannot post new topics in this forum
    You cannot reply to topics in this forum
    You cannot edit your posts in this forum
    You cannot delete your posts in this forum
    You cannot vote in polls in this forum
    You cannot attach files in this forum
    You can download files in this forum
    User agreement
    For copyright holders
    Advertise on this site

    Скачайте на халяву через торрент на трекере erzsebet.pl

    !ATTENTION!
    The site does not give electronic versions of products, and is engaged only in a collecting and cataloguing of the references sent and published at a forum by our readers. If you are the legal owner of any submitted material and do not wish that the reference to it was in our catalogue, contact us and we shall immediately remove her. Files for an exchange on tracker are given by users of a site, and the administration does not bear the responsibility for their maintenance. The request to not fill in the files protected by copyrights, and also files of the illegal maintenance!