Виконт Де Бражелон / Le vicomte de Bragelonne (Фернандо Черкио / Fernando Cerchio) [1954, Франция, Италия, приключения, VHSRip-AVC] DVO (По заказу ОРТ Видео)

DL-List and Torrent activity
Size:  1.94 GB   |    Registered:  2 years 9 months   |    Completed:  16 times
Seeders:  5  
 
   
 
 

erzsebet.org ®

Longevity:
2 years 9 months
Posts:
47596

[Quote] 

Виконт Де Бражелон / Le vicomte de Bragelonne
Страна: Франция, Италия
Жанр: приключения
Год выпуска: 1954
Продолжительность: 01:26:51
Перевод: Профессиональный (двухголосый закадровый) По заказу ОРТ Видео
Субтитры: нет
Оригинальная аудиодорожка: нет
Режиссер: Фернандо Черкио / Fernando Cerchio
В ролях: Жорж Маршаль, Доун Аддамс, Жак Дюмениль, Франко Силва, Флоренс Арно, Робер Бюрнье, Андре Фалькон, Филипп Олив, Нико Пепе, Николас Амато, Жан Тиссье, Жан Карме (в титрах не указан), Альбер Мишель (в титрах не указан)...
Описание:
Бедный король Франции! Враги подстерегают его на каждом шагу. После долгих лет неудач сторонники кардинала выкладывают последний козырь. Они меняют местами короля и его брата — близнеца, с детства томившегося в тюрьме.
Сын знаменитого Атоса, мушкетер Виконт де Бражелон раскрывает страшную тайну. Твердость руки, благородство и верная дружба одерживают верх в схватке с гвардейцами кардинала. Король снова у власти, а герой получает славу и конечно любовь.
Экранизация романа Александра Дюма, за которую нужно ноги оторвать, спички вставить и сказать, что так и было!
Сравнение с http://erzsebet.org/forum/viewtopic.php?t=1778056:
http://screenshotcomparison.com/comparison/215124
http://screenshotcomparison.com/comparison/215125
http://screenshotcomparison.com/comparison/215126
Сравнение с http://erzsebet.org/forum/viewtopic.php?t=530723:
http://screenshotcomparison.com/comparison/215127
http://screenshotcomparison.com/comparison/215128
http://screenshotcomparison.com/comparison/215129
Доп. информация:
Оцифровка VHS из собственной коллекции, которую я лично спиратил когда-то давно с видеокассеты Светлы.
Данный перевод в Рунете впервые!
Сэмпл: http://sendfile.su/1347467
Качество видео: VHSRip-AVC
Формат видео: MP4
Видео: AVC, 720х576, 5:4, 25,000 кадров/сек, 3000 Кбит/сек
Аудио: AAC, 48,0 КГц, 192 Кбит/сек, 2.0 (псевдостерео)

MediaInfo

General
Complete name : K:\torrents\Le vicomte de Bragelonne\Le vicomte de Bragelonne.mp4
Format : MPEG-4
Format profile : Base Media
Codec ID : isom (isom/iso2/avc1/mp41)
File size : 1.94 GiB
Duration : 1 h 26 min
Overall bit rate : 3 195 kb/s
Writing application : Lavf57.25.100
Video
ID : 1
Format : AVC
Format/Info : Advanced Video Codec
Format profile : [email protected]
Format settings, CABAC : No
Format settings, RefFrames : 1 frame
Format settings, GOP : M=1, N=50
Codec ID : avc1
Codec ID/Info : Advanced Video Coding
Duration : 1 h 26 min
Bit rate : 3 000 kb/s
Width : 720 pixels
Height : 576 pixels
Display aspect ratio : 5:4
Frame rate mode : Constant
Frame rate : 25.000 FPS
Standard : PAL
Color space : YUV
Chroma subsampling : 4:2:0
Bit depth : 8 bits
Scan type : Progressive
Bits/(Pixel*Frame) : 0.289
Stream size : 1.82 GiB (94%)
Language : English
Audio
ID : 2
Format : AAC
Format/Info : Advanced Audio Codec
Format profile : LC
Codec ID : 40
Duration : 1 h 26 min
Bit rate mode : Constant
Bit rate : 192 kb/s
Channel(s) : 2 channels
Channel positions : Front: L R
Sampling rate : 48.0 kHz
Frame rate : 46.875 FPS (1024 SPF)
Compression mode : Lossy
Stream size : 118 MiB (6%)
Language : English
Default : Yes
Alternate group : 1

Скриншот c названием фильма

If your ratio falls below 0.3, you will not be able to download Torrents! More about the rating.

[erzsebet.pl].t552.torrent
Torrent: Registered   [ 2017-12-02 16:56 ]

Download .torrent

Download

20 KB

Status: checked
Completed: 16 times
Size: 1.94 GB
terms.php

#1

02-Dec-2017 16:55

[Profile]  [PM] 
Display posts:    

You cannot post new topics in this forum
You cannot reply to topics in this forum
You cannot edit your posts in this forum
You cannot delete your posts in this forum
You cannot vote in polls in this forum
You cannot attach files in this forum
You can download files in this forum
User agreement
For copyright holders
Advertise on this site

Скачайте на халяву через торрент на трекере erzsebet.pl

!ATTENTION!
The site does not give electronic versions of products, and is engaged only in a collecting and cataloguing of the references sent and published at a forum by our readers. If you are the legal owner of any submitted material and do not wish that the reference to it was in our catalogue, contact us and we shall immediately remove her. Files for an exchange on tracker are given by users of a site, and the administration does not bear the responsibility for their maintenance. The request to not fill in the files protected by copyrights, and also files of the illegal maintenance!