Побег из Нью-Йорка / Escape from New York (Джон Карпентер / John Carpenter) [1981, США, Великобритания, Фантастика, Боевик, Триллер, VHSRip] AVO (Алексей Михалев)

DL-List and Torrent activity
Size:  1.37 GB   |    Registered:  2 years 9 months   |    Completed:  16 times
Seeders:  3   Leechers:  1   Show peers in full details
 
   
 
 

erzsebet.org ®

Longevity:
2 years 9 months
Posts:
47596

[Quote] 

Побег из Нью-Йорка / Escape from New York
«1997. New York city is now a maximum security prison. Breaking out is impossible. Breaking in is insane»
Страна: США, Великобритания
Жанр: Фантастика, Боевик, Триллер
Год выпуска: 1981
Продолжительность: 01:35:35.
Перевод: Авторский (одноголосый закадровый) Алексей Михалев
Субтитры: нет
Режиссер: Джон Карпентер / John Carpenter
В ролях: Курт Рассел /Kurt Russell/, Ли Ван Клиф /Lee Van Cleef/, Эрнест Боргнайн /Ernest Borgnine/, Дональд Плезенс /Donald Pleasence/, Айзек Хейз /Isaac Hayes/, Сизон Хабли /Season Hubley/, Гарри Дин Стэнтон /Harry Dean Stanton/, Эдриенн Барбо /Adrienne Barbeau/, Том Аткинс /Tom Atkins/, Чарльз Сайферс /Charles Cyphers/, Джо Ангер /Joe Unger/, Джон Дил /John Diehl/, Кармен Филпи /Carmen Filpi/, Окс Бэйкер /Ox Baker
Описание: Некогда великий город Нью-Йорк превращен в тюрьму особо строгого режима для самых отъявленных преступников. Все подходы к острову Манхэттен заминированы, вдоль берега воздвигнута огромная стена, а тех, кто все же осмелится бежать, подстерегает целая армия полицейских, немедленно открывающих огонь на поражение.
Когда в Нью-Йорке терпит аварию самолет президента США, заключенные берут главу государства в заложники. Освободить его должен крутой парень — «Змей» Плисскен, бывший герой войны, ставший преступником.
Если через 24 часа «Змей» вернется с президентом, он получит свободу. Если же он не выполнит задание, сработает вживленная в его тело бомба с часовым механизмом…
Доп. информация: Оцифровка VHS (личный архив) и получение VHSRip alenavova
Эксклюзив для erzsebet.org. При размещении данного релиза на других сайтах ссылка на автора alenavova обязательна.
Релиз
Сэмпл: https://yadi.sk/i/2RrS0YvM3QCn36
Качество видео: VHSRip
Формат видео: AVI
Видео: 704x544 (1.29:1), 25 fps, XviD build 73 ~1845 kbps avg, 0.19 bit/pixel
Аудио: 48 kHz, AC3 Dolby Digital, 2/0 (L,R) ch, ~192 kbps

MediaInfo

Побег из Нью-Йорка - Escape from New York [by alenavova].avi
Format : AVI
Format/Info : Audio Video Interleave
File size : 1.37 GiB
Duration : 1 h 35 min
Overall bit rate : 2 048 kb/s
Movie name : Побег из Нью-Йорка - Escape from New York [by alenavova]
Director : by alenavova
Writing application : VirtualDubMod 1.5.10.3 | www.virtualdub-fr.org || (build 2550/release)
Copyright : Edich2
Comment : erzsebet.org
Video
ID : 0
Format : MPEG-4 Visual
Format profile : Advanced [email protected]
Format settings, BVOP : 2
Format settings, QPel : No
Format settings, GMC : No warppoints
Format settings, Matrix : Custom
Codec ID : XVID
Codec ID/Hint : XviD
Duration : 1 h 35 min
Bit rate : 1 846 kb/s
Width : 704 pixels
Height : 544 pixels
Display aspect ratio : 1.294
Frame rate : 25.000 FPS
Color space : YUV
Chroma subsampling : 4:2:0
Bit depth : 8 bits
Scan type : Progressive
Compression mode : Lossy
Bits/(Pixel*Frame) : 0.193
Stream size : 1.23 GiB (90%)
Writing library : XviD 73
Audio
ID : 1
Format : AC-3
Format/Info : Audio Coding 3
Format settings, Endianness : Big
Codec ID : 2000
Duration : 1 h 35 min
Bit rate mode : Constant
Bit rate : 192 kb/s
Channel(s) : 2 channels
Channel positions : Front: L R
Sampling rate : 48.0 kHz
Frame rate : 31.250 FPS (1536 spf)
Bit depth : 16 bits
Compression mode : Lossy
Stream size : 131 MiB (9%)
Alignment : Split accross interleaves
Interleave, duration : 40 ms (1.00 video frame)
Interleave, preload duratio : 500 ms
Service kind : Complete Main

Скриншоты


If your ratio falls below 0.3, you will not be able to download Torrents! More about the rating.

[erzsebet.pl].t565.torrent
Torrent: Registered   [ 2017-12-02 16:56 ]

Download .torrent

Download

14 KB

Status: checked
Completed: 16 times
Size: 1.37 GB
terms.php

#1

02-Dec-2017 16:54

[Profile]  [PM] 
Display posts:    

You cannot post new topics in this forum
You cannot reply to topics in this forum
You cannot edit your posts in this forum
You cannot delete your posts in this forum
You cannot vote in polls in this forum
You cannot attach files in this forum
You can download files in this forum
User agreement
For copyright holders
Advertise on this site

Скачайте на халяву через торрент на трекере erzsebet.pl

!ATTENTION!
The site does not give electronic versions of products, and is engaged only in a collecting and cataloguing of the references sent and published at a forum by our readers. If you are the legal owner of any submitted material and do not wish that the reference to it was in our catalogue, contact us and we shall immediately remove her. Files for an exchange on tracker are given by users of a site, and the administration does not bear the responsibility for their maintenance. The request to not fill in the files protected by copyrights, and also files of the illegal maintenance!