Вор / Thief (Майкл Манн / Michael Mann) [1981, США, триллер, драма, криминал, BDRip] [Criterion Director-Approved Edition] DVO (НТВ+)

DL-List and Torrent activity
Size:  1.44 GB   |    Registered:  2 years 9 months   |    Completed:  16 times
Seeders:  8  
 
   
 
 

erzsebet.org ®

Longevity:
2 years 9 months
Posts:
47596

[Quote] 

Вор |Thief«Tonight, his take home pay is $410,000...tax free»Criterion Director-Approved Edition
Страна: США
Студия: Mann/Caan Productions, MGM Home Entertainment
Жанр: триллер, драма, криминал
Год выпуска: 1981
Продолжительность: 02:04:41-Перевод: Профессиональный (двухголосый закадровый) НТВ+*
Субтитры: нет
Оригинальная аудиодорожка: нет-Режиссер: Майкл Манн / Michael Mann
В ролях: Джеймс Каан, Тьюзди Уэлд, Уилли Нельсон, Джеймс Белуши, Роберт Проски, Том Сигнорелли, Деннис Фарина, Ник Никеас, В.Р. Браун, Норм Тобин-Описание: Рецидивист Фрэнк - "медвежатник" экстра-класса, которому "по зубам" любой сейф. Всю свою воровскую жизнь Фрэнк предпочитал работать один, доверяясь лишь верному напарнику Барри. Но непреодолимое желание отхватить большой куш, который позволит, наконец, выйти "на пенсию", заставляет Фрэнка совершить роковую ошибку: он соглашается провернуть ограбление по заказу крупного преступного синдиката. Теперь матерый волк-одиночка попал в смертельный капкан: сможет ли Фрэнк вырваться из него или это дело окажется для медвежатника последним?!

*Собственная запись со спутника Eutelsat 36A/36B (36°E) | MGM HD (эфир 26.11.2017г.)
Текст читали: Ольга Плетнева, Михаил Тихонов
Качество видео: BDRip
Формат видео: AVI
Видео: MPEG-4 Visual / 720x384 (1,85:1) / 23,976 fps / XviD build 50 ~1450 kbps avg / 0.219 bit/pixel
Аудио: Russian | Dolby Digital Audio / 2.0 Ch / 48 kHz / 192 kbps / 16-bit | DVO | НТВ+*

Примечание

На участке 00:10:31,614 в русской дорожке сделана вставка --> 00:01:22,358 из перевода Евгения Гаевского. На Blu-Ray добавлена сцена, отсутствующая в трансляции HDTV, которая собственно и переведена последним.

MediaInfo

Код:Общее
Полное имя : S:\BDRip\Thief.1981.BDRip.XviD.DVO.DD.2.0.avi
Формат : AVI
Формат/Информация : Audio Video Interleave
Размер файла : 1,44 Гбайт
Продолжительность : 2 ч. 4 м.
Общий поток : 1651 Кбит/сек
Программа кодирования : VirtualDubMod 1.5.10.3 | www.virtualdub-fr.org || (build 2550/release)
Библиотека кодирования : VirtualDubMod build 2550/release
Видео
Идентификатор : 0
Формат : MPEG-4 Visual
Профиль формата : Advanced [email protected]
Настройки формата : BVOP2 / Custom Matrix
Параметр BVOP формата : 2
Параметр QPel формата : Нет
Параметр GMC формата : Без точки перехода
Параметр матрицы формата : Выборочная
Идентификатор кодека : XVID
Идентификатор кодека/Подсказка : XviD
Продолжительность : 2 ч. 4 м.
Битрейт : 1450 Кбит/сек
Ширина : 720 пикселей
Высота : 384 пикселя
Соотношение сторон : 1,85:1
Частота кадров : 23,976 (24000/1001) кадра/сек
Цветовое пространство : YUV
Субдискретизация насыщенности : 4:2:0
Битовая глубина : 8 бит
Тип развёртки : Прогрессивная
Метод сжатия : С потерями
Бит/(Пиксели*Кадры) : 0.219
Размер потока : 1,26 Гбайт (88%)
Библиотека кодирования : XviD 1.2.1 (UTC 2008-12-04)
Аудио
Идентификатор : 1
Формат : AC-3
Формат/Информация : Audio Coding 3
Идентификатор кодека : 2000
Продолжительность : 2 ч. 4 м.
Вид битрейта : Постоянный
Битрейт : 192 Кбит/сек
Каналы : 2 канала
Расположение каналов : Front: L R
Частота : 48,0 КГц
Частота кадров : 31,250 кадров/сек (1536 SPF)
Битовая глубина : 16 бит
Метод сжатия : С потерями
Размер потока : 171 Мбайт (12%)
Выравнивание : Разделение по промежуткам
Продолжительность промежутка : 42 мс. (1,00 видеокадр)
Время предзагрузки промежутка : 500 мс.
Заголовок : DVO | НТВ+
ServiceKind/String : Complete Main

If your ratio falls below 0.3, you will not be able to download Torrents! More about the rating.

[erzsebet.pl].t569.torrent
Torrent: Registered   [ 2017-12-02 16:56 ]

Download .torrent

Download

15 KB

Status: checked
Completed: 16 times
Size: 1.44 GB
terms.php

#1

02-Dec-2017 16:54

[Profile]  [PM] 
Display posts:    

You cannot post new topics in this forum
You cannot reply to topics in this forum
You cannot edit your posts in this forum
You cannot delete your posts in this forum
You cannot vote in polls in this forum
You cannot attach files in this forum
You can download files in this forum
User agreement
For copyright holders
Advertise on this site

Скачайте на халяву через торрент на трекере erzsebet.pl

!ATTENTION!
The site does not give electronic versions of products, and is engaged only in a collecting and cataloguing of the references sent and published at a forum by our readers. If you are the legal owner of any submitted material and do not wish that the reference to it was in our catalogue, contact us and we shall immediately remove her. Files for an exchange on tracker are given by users of a site, and the administration does not bear the responsibility for their maintenance. The request to not fill in the files protected by copyrights, and also files of the illegal maintenance!