Табак / Конец "Никотианы" / Тютюн (Николай Корабов / Никола Корабов) [1962, Болгария, драма, SATRip] DVO (студия "Кондор")

Reply to topic
DL-List and Torrent activity
Size:  2.46 GB   |    Registered:  3 years 3 months   |    Completed:  16 times

Seeder not seen: Never

 
   
 
 
Author Message

erzsebet.org ®

Longevity: 3 years 2 months

Posts: 47596

Post 02-Dec-2017 15:57

[Quote]

Табак / Тютюн
Страна: Болгария
Жанр: драма
Год выпуска: 1962
Продолжительность: 01:02:44+01:18:44
Перевод: Профессиональный (двухголосый закадровый) студия "Кондор" по заказу ВГТРК
Субтитры: нет
Оригинальная аудиодорожка: нет
Режиссер: Никола Корабов
В ролях: Невена Коканова
Йордан Матев
Мирослава Стоянова
Иван Касабов
Никола Попов
Стефан Пейчев
Пётр Слабаков
Луна Давыдова
Вольфганг Лангхоф
Георги Стаматов
Описание: Экранизация классического романа Димитра Димова "Табак".
В фильме развёрнута панорама общественной жизни в Болгарии на протяжении пятнадцати лет - с начала 30-х годов до конца второй мировой войны. Изображая судьбы людей, так или иначе связанных с табачной фирмой "Никотина", авторы раскрывают неумолимый процесс деградации буржуазного общества, показывают рост революционных сил в стране.
Сэмпл: http://multi-up.com/1177614
Качество видео: SATRip
Формат видео: AVI
Видео 1: MPEG4, XviD, 688x496 (1.387), 25.000 fps, 2 289 Kbps (0.268 bit/pixel)
Аудио 1: AC-3, 48.0 KHz, 2 ch, 192 Kbps, CBR
Видео 2: MPEG4, XviD, 688x496 (1.387), 25.000 fps, 2 287 Kbps (0.268 bit/pixel)
Аудио 2: AC-3, 48.0 KHz, 2 ch, 192 Kbps, CBR

MediaInfo

Общее
Полное имя : M:\Табак 1с..avi
Формат : AVI
Формат/Информация : Audio Video Interleave
Размер файла : 1,09 Гбайт
Продолжительность : 1 ч. 2 м.
Общий поток : 2491 Кбит/сек
Название фильма : Табак / Тютюн (1962)
Программа кодирования : VirtualDubMod 1.5.10.2 (build 2540/release)
Библиотека кодирования : VirtualDubMod build 2540/release
Авторское право : miha2154
Видео
Идентификатор : 0
Формат : MPEG-4 Visual
Профиль формата : Advanced [email protected]
Параметр BVOP формата : 1
Параметр QPel формата : Нет
Параметр GMC формата : Без точки перехода
Параметр матрицы формата : Выборочная
Идентификатор кодека : XVID
Идентификатор кодека/Подсказка : XviD
Продолжительность : 1 ч. 2 м.
Битрейт : 2289 Кбит/сек
Ширина : 688 пикселей
Высота : 496 пикселей
Соотношение сторон : 1,387
Частота кадров : 25,000 кадров/сек
Цветовое пространство : YUV
Субдискретизация насыщенности : 4:2:0
Битовая глубина : 8 бит
Тип развёртки : Прогрессивная
Метод сжатия : С потерями
Бит/(Пиксели*Кадры) : 0.268
Размер потока : 1,00 Гбайт (92%)
Библиотека кодирования : XviD 65
Аудио
Идентификатор : 1
Формат : AC-3
Формат/Информация : Audio Coding 3
Расширение режима : CM (complete main)
Параметр Endianness формата : Big
Идентификатор кодека : 2000
Продолжительность : 1 ч. 2 м.
Вид битрейта : Постоянный
Битрейт : 192 Кбит/сек
Каналы : 2 канала
Расположение каналов : Front: L R
Частота : 48,0 КГц
Частота кадров : 31,250 кадров/сек (1536 spf)
Метод сжатия : С потерями
Размер потока : 86,2 Мбайт (8%)
Выравнивание : Разделение по промежуткам
Продолжительность промежутка : 40 мс. (1,00 видеокадр)
Время предзагрузки промежутка : 500 мс.
Общее
Полное имя : M:\МОИ РАЗДАЧИ\Табак\Табак 2с..avi
Формат : AVI
Формат/Информация : Audio Video Interleave
Размер файла : 1,37 Гбайт
Продолжительность : 1 ч. 18 м.
Общий поток : 2489 Кбит/сек
Название фильма : Табак / Тютюн (1962)
Программа кодирования : VirtualDubMod 1.5.10.2 (build 2540/release)
Библиотека кодирования : VirtualDubMod build 2540/release
Авторское право : miha2154
Видео
Идентификатор : 0
Формат : MPEG-4 Visual
Профиль формата : Advanced [email protected]
Параметр BVOP формата : 1
Параметр QPel формата : Нет
Параметр GMC формата : Без точки перехода
Параметр матрицы формата : Выборочная
Идентификатор кодека : XVID
Идентификатор кодека/Подсказка : XviD
Продолжительность : 1 ч. 18 м.
Битрейт : 2287 Кбит/сек
Ширина : 688 пикселей
Высота : 496 пикселей
Соотношение сторон : 1,387
Частота кадров : 25,000 кадров/сек
Цветовое пространство : YUV
Субдискретизация насыщенности : 4:2:0
Битовая глубина : 8 бит
Тип развёртки : Прогрессивная
Метод сжатия : С потерями
Бит/(Пиксели*Кадры) : 0.268
Размер потока : 1,26 Гбайт (92%)
Библиотека кодирования : XviD 65
Аудио
Идентификатор : 1
Формат : AC-3
Формат/Информация : Audio Coding 3
Расширение режима : CM (complete main)
Параметр Endianness формата : Big
Идентификатор кодека : 2000
Продолжительность : 1 ч. 18 м.
Вид битрейта : Постоянный
Битрейт : 192 Кбит/сек
Каналы : 2 канала
Расположение каналов : Front: L R
Частота : 48,0 КГц
Частота кадров : 31,250 кадров/сек (1536 spf)
Метод сжатия : С потерями
Размер потока : 108 Мбайт (8%)
Выравнивание : Разделение по промежуткам
Продолжительность промежутка : 40 мс. (1,00 видеокадр)
Время предзагрузки промежутка : 500 мс.

Скриншоты


[erzsebet.pl].t57.torrent
Torrent: Registered [ 2017-12-02 15:58 ] · 9EB6DD3A3F3709F8EE5E119BB59F810931E60D15

Download .torrent

Download

13 KB

Status: checked
Completed: 16 times
Size: 2.46 GB
terms.php
[Profile] [PM]
Display posts:    
Reply to topic

Current time is: 03-Mar 18:09

All times are UTC ± 0



You cannot post new topics in this forum
You cannot reply to topics in this forum
You cannot edit your posts in this forum
You cannot delete your posts in this forum
You cannot vote in polls in this forum
You cannot attach files in this forum
You can download files in this forum