Сицилиец / The Sicilian (Майкл Чимино / Michael Cimino) [1987, США, боевик, драма, криминал, BDRip] DVO (Екатеринбург Арт)

DL-List and Torrent activity
Size:  2.14 GB   |    Registered:  2 years 9 months   |    Completed:  16 times
Seeders:  6   Leechers:  2   Show peers in full details
 
   
 
 

erzsebet.org ®

Longevity:
2 years 9 months
Posts:
47596

[Quote] 

Сицилиец / The Sicilian-Впечатлаяющая эпическая сага от режиссёра "ОХОТНИКА НА ОЛЕНЕЙ" и создателя "КРЁСТНОГО ОТЦА".
- Год выпуска: 1987
Страна: США
Жанр: боевик, драма, криминал
Продолжительность: 02:26:29
Перевод: Профессиональный (двухголосый закадровый) - Екатеринбург Арт
Субтитры: нет
Режиссер: Майкл Чимино / Michael Cimino
В ролях: Кристофер Ламберт / Salvatore Giuliano, Теренс Стэмп / Prince Borsa, Джосс Экленд / Don Masino Croce, Джон Туртурро / Pisciotta, Ричард Бауэр / Hector Adonis, Барбара Зукова / Camilla - Duchess of Crotone, Джулия Боски / Giovanna Ferra-Мировая премьера: 23 октября 1987-Описание: По роману Марио Пьюзо. Хроника жизни знаменитого сицилийца Сальваторе Джулиано, прозванного в народе "сицилийским Робин Гудом". Сальваторе грабил богатых землевладельцев и роздавал деньги бедным крестьянам, мечтал добиться независимости Сицилии. Популярность Сальваторе стремительно росла. Война Сальваторе обрела угрожающие масштабы и заставила правительство, мафию и церковь объединиться в борьбе против него.-Огромная благодарность:
порошков - BDRip 1080p
RockNIK - личная оцифровка звука со своей лицензионной видеокассеты от видеокомпании "Екатеринбург Арт".
JUSTKANT - синхронизация перевода.-ДАННЫЙ ПЕРЕВОД НА ТРЕКЕРЕ ПОЯВЛЯЕТСЯ ВПЕРВЫЕ.
На русский язык фильм озвучен по заказу компании Екатеринбург Арт.
Текст читают Андрей Казанцев и Наталья Гурзо.-
Рейтинг

MPAA: R - Лицам до 17 лет обязательно присутствие взрослого.-Качество видео: BDRip
Формат видео: AVI -> //Сэмпл//
Видео: XviD, 720x304 (2.35:1), 23.976 fps, 1888 kbps
Аудио:
1 - 48 khz, AC3 Dolby Digital, 2/0 (L,R) ch, ~192 kbps [Екатеринбург Арт] VHSRip

MediaInfo

General
Complete name : D:\Сицилиец (Екатеринбург Арт).avi
Format : AVI
Format/Info : Audio Video Interleave
Format profile : OpenDML
File size : 2.14 GiB
Duration : 2 h 26 min
Overall bit rate : 2 092 kb/s
Movie name : Сицилиец / The Sicilian (Екатеринбург Арт)
Director : JUSTKANT
Writing application : VirtualDubMod 1.5.10.3 (build 2550/release)
Copyright : На русский язык фильм озвучен по заказу компании Екатеринбург Арт
Comment : Качество звука: VHSRipТВ (RockNIK)
Video
ID : 0
Format : MPEG-4 Visual
Format profile : Advanced [email protected]
Format settings, BVOP : 1
Format settings, QPel : No
Format settings, GMC : No warppoints
Format settings, Matrix : Custom
Codec ID : XVID
Codec ID/Hint : XviD
Duration : 2 h 26 min
Bit rate : 1 888 kb/s
Width : 720 pixels
Height : 304 pixels
Display aspect ratio : 2.35:1
Frame rate : 23.976 (24000/1001) FPS
Color space : YUV
Chroma subsampling : 4:2:0
Bit depth : 8 bits
Scan type : Progressive
Compression mode : Lossy
Bits/(Pixel*Frame) : 0.360
Stream size : 1.93 GiB (90%)
Writing library : XviD 73
Audio
ID : 1
Format : AC-3
Format/Info : Audio Coding 3
Format settings, Endianness : Big
Codec ID : 2000
Duration : 2 h 26 min
Bit rate mode : Constant
Bit rate : 192 kb/s
Channel(s) : 2 channels
Channel positions : Front: L R
Sampling rate : 48.0 kHz
Frame rate : 31.250 FPS (1536 SPF)
Bit depth : 16 bits
Compression mode : Lossy
Stream size : 201 MiB (9%)
Alignment : Split accross interleaves
Interleave, duration : 42 ms (1.00 video frame)
Interleave, preload duratio : 500 ms
Title : Екатеринбург Арт: Андрей Казанцев и Наталья Гурзо
Service kind : Complete Main

Скриншот c названием фильма

Скриншоты

If your ratio falls below 0.3, you will not be able to download Torrents! More about the rating.

[erzsebet.pl].t572.torrent
Torrent: Registered   [ 2017-12-02 16:56 ]

Download .torrent

Download

11 KB

Status: checked
Completed: 16 times
Size: 2.14 GB
terms.php

#1

02-Dec-2017 16:54

[Profile]  [PM] 
Display posts:    

You cannot post new topics in this forum
You cannot reply to topics in this forum
You cannot edit your posts in this forum
You cannot delete your posts in this forum
You cannot vote in polls in this forum
You cannot attach files in this forum
You can download files in this forum
User agreement
For copyright holders
Advertise on this site

Скачайте на халяву через торрент на трекере erzsebet.pl

!ATTENTION!
The site does not give electronic versions of products, and is engaged only in a collecting and cataloguing of the references sent and published at a forum by our readers. If you are the legal owner of any submitted material and do not wish that the reference to it was in our catalogue, contact us and we shall immediately remove her. Files for an exchange on tracker are given by users of a site, and the administration does not bear the responsibility for their maintenance. The request to not fill in the files protected by copyrights, and also files of the illegal maintenance!