Грейстоук: Легенда о Тарзане, повелителе обезьян / Greystoke: The Legend of Tarzan, Lord of the Apes (Хью Хадсон / Hugh Hudson) [1984, Великобритания, США, драма, приключения, BDRip] AVO (Володарский)

DL-List and Torrent activity
Size:  1.46 GB   |    Registered:  2 years 9 months   |    Completed:  16 times
Seeders:  3   Leechers:  3   Show peers in full details
 
   
 
 

erzsebet.org ®

Longevity:
2 years 9 months
Posts:
47596

[Quote] 

Грейстоук: Легенда о Тарзане, повелителе обезьян / Greystoke: The Legend of Tarzan, Lord of the Apes
Год выпуска: 1984
Страна: Великобритания, США
Жанр: драма, приключения
Продолжительность: 02:17:00
Перевод: Авторский (одноголосый закадровый) - Леонид Володарский
Субтитры: нет
Режиссер: Хью Хадсон / Hugh Hudson
В ролях: Ральф Ричардсон / The Sixth Earl of Greystoke, Иэн Холм / Capitaine Phillippe D'Arnot, Джеймс Фокс / Lord Charles Esker, Кристофер Ламберт (John Clayton / Tarzan, Lord of the Apes), Энди МакДауэлл / Miss Jane Porter-Мировая премьера: 30 марта 1984-Описание: По роману Эдгара Райса Берроуза. У берегов Африки терпит бедствие корабль, на борту которого находится лорд Клейтон с молодой женой. После 10 месяцев пребывания в джунглях у них рождается сын. Но матушка умирает от лихорадки, вскоре погибает и отец. Маленького Джона принимает к себе стая обезьян и воспитывает как своего детеныша. Проходит 20 лет. Джон спасает бельгийского ученого Филиппа д'Арно, главу научной экспедиции Британского музея, раненного пигмеем. Обнаружив старое убежище Клейтонов и документы своего спасителя, ученый делает все, чтобы перевезти Джона обратно в родовой замок в Шотландии, к его деду. Однако новому графу Грейстоку многое не по вкусу в изысканной и надменной английской цивилизации...-Огромная благодарность:
victortv - видеоряд.
Nekontroliruemij_devil - личная оцифровка Володарского со своей видеокассеты.
JUSTKANT - синхронизация перевода.-
Рейтинг

MPAA: PG - Рекомендуется присутствие родителей.-Качество видео: BDRip
Формат видео: AVI -> //Сэмпл//
Видео: XviD, 720x304 (2.35:1), 23.976 fps, 1320 kbps
Аудио:
1 - 48 khz, AC3 Dolby Digital, 2/0 (L,R) ch, ~192 kbps [Володарский] VHSRip

MediaInfo

General
Complete name : D:\Грейстоук. Легенда о Тарзане, повелителе обезьян (Володарский).avi
Format : AVI
Format/Info : Audio Video Interleave
File size : 1.46 GiB
Duration : 2 h 17 min
Overall bit rate : 1 522 kb/s
Movie name : Грейстоук: Легенда о Тарзане, повелителе обезьян / Greystoke: The Legend of Tarzan, Lord of the Apes (Володарский)
Director : JUSTKANT
Writing application : VirtualDubMod 1.5.10.3 (build 2550/release)
Copyright : Качество звука: VHSRip (Nekontroliruemij_devil)
Video
ID : 0
Format : MPEG-4 Visual
Format profile : Advanced [email protected]
Format settings, BVOP : 1
Format settings, QPel : No
Format settings, GMC : No warppoints
Format settings, Matrix : Custom
Codec ID : XVID
Codec ID/Hint : XviD
Duration : 2 h 17 min
Bit rate : 1 320 kb/s
Width : 720 pixels
Height : 304 pixels
Display aspect ratio : 2.35:1
Frame rate : 23.976 (24000/1001) FPS
Color space : YUV
Chroma subsampling : 4:2:0
Bit depth : 8 bits
Scan type : Progressive
Compression mode : Lossy
Bits/(Pixel*Frame) : 0.252
Stream size : 1.26 GiB (87%)
Writing library : XviD 73
Audio
ID : 1
Format : AC-3
Format/Info : Audio Coding 3
Format settings, Endianness : Big
Codec ID : 2000
Duration : 2 h 17 min
Bit rate mode : Constant
Bit rate : 192 kb/s
Channel(s) : 2 channels
Channel positions : Front: L R
Sampling rate : 48.0 kHz
Frame rate : 31.250 FPS (1536 SPF)
Bit depth : 16 bits
Compression mode : Lossy
Stream size : 188 MiB (13%)
Alignment : Split accross interleaves
Interleave, duration : 42 ms (1.00 video frame)
Interleave, preload duratio : 500 ms
Title : Леонид Володарский (VHSRip)
Service kind : Complete Main

Скриншот c названием фильма

Скриншоты

If your ratio falls below 0.3, you will not be able to download Torrents! More about the rating.

[erzsebet.pl].t574.torrent
Torrent: Registered   [ 2017-12-02 16:56 ]

Download .torrent

Download

15 KB

Status: checked
Completed: 16 times
Size: 1.46 GB
terms.php

#1

02-Dec-2017 16:54

[Profile]  [PM] 
Display posts:    

You cannot post new topics in this forum
You cannot reply to topics in this forum
You cannot edit your posts in this forum
You cannot delete your posts in this forum
You cannot vote in polls in this forum
You cannot attach files in this forum
You can download files in this forum
User agreement
For copyright holders
Advertise on this site

Скачайте на халяву через торрент на трекере erzsebet.pl

!ATTENTION!
The site does not give electronic versions of products, and is engaged only in a collecting and cataloguing of the references sent and published at a forum by our readers. If you are the legal owner of any submitted material and do not wish that the reference to it was in our catalogue, contact us and we shall immediately remove her. Files for an exchange on tracker are given by users of a site, and the administration does not bear the responsibility for their maintenance. The request to not fill in the files protected by copyrights, and also files of the illegal maintenance!