Каратель / The Punisher (Марк Голдблатт / Mark Goldblatt) [1989, Австралия, США, боевик, триллер, драма, VHSRip > DVD] [Fullscreen] AVO (Гаврилов)

DL-List and Torrent activity
Size:  4.37 GB   |    Registered:  2 years 9 months   |    Completed:  16 times
Seeders:  4   Leechers:  1   Show peers in full details
 
   
 
 

erzsebet.org ®

Longevity:
2 years 9 months
Posts:
47596

[Quote] 

Каратель / The Punisher [Fullscreen]- Страна: США
Жанр: боевик, триллер, драма
Год выпуска: 1989
Продолжительность: 01:27:28-Перевод: Авторский (одноголосый закадровый) - Андрей Гаврилов
Субтитры: нет-Режиссер: Марк Голдблатт / Mark Goldblatt
В ролях: Дольф Лундгрен, Луис Госсет мл., Ерун Краббе, Ким Мийори, Брайан Маршалл, Нэнси Эверхард, Бэрри Отто, Брайан Руни, Зошка Мизак, Кэндзи Ямаки- | Релиз: -Описание: Полицейский Фрэнк Кастл с трудом пережил гибель семьи, его жена и дочь сгорели живьем во взорванном автомобиле. Теперь он стал судьей и палачом 125 гангстеров, которых он разыскал и приговорил к смерти. Его невозможно остановить. Но у него слишком много врагов...-Доп. информация: Личная оцифровка VHS.
Внимание! Здесь другой перевод Андрея Гаврилова!-Семпл: http://sendfile.su/1380206-Тип релиза: VHSRip
Контейнер: DVD-Video (DVD-5)
Видео: 720x576 (4:3) @ 768x576, 25.000 fps, MPEG-2 Video, ~6250 Kbps, 0.603 bits/pixel
Аудио: Русский, 48.0 KHz, PCM, 1 ch, 768 Kbps

DVDInfo

Title: The Punisher 1989 [Fullscreen] VHS Gavrilov
Size: 4.37 Gb ( 4 578 742,00 KBytes ) - DVD-5
Enabled regions: 1, 2, 3, 4, 5, 6, 7, 8
VTS_01 :
Play Length: 01:27:28
Video: PAL 4:3 (720x576) VBR
Audio:
Russian (LinearPCM, 1 ch)

MediaInfo

General
Complete name : \The Punisher 1989 [Fullscreen] VHS Gavrilov\VIDEO_TS\VTS_01_1.VOB
Format : MPEG-PS
File size : 1 024 MiB
Duration : 20 min 2 s
Overall bit rate mode : Variable
Overall bit rate : 7 146 kb/s
Video
ID : 224 (0xE0)
Format : MPEG Video
Format version : Version 2
Format profile : [email protected]
Format settings : CustomMatrix / BVOP
Format settings, BVOP : Yes
Format settings, Matrix : Custom
Format settings, GOP : Variable
Format settings, picture structure : Frame
Duration : 20 min 2 s
Bit rate mode : Variable
Bit rate : 6 250 kb/s
Width : 720 pixels
Height : 576 pixels
Display aspect ratio : 4:3
Frame rate : 25.000 FPS
Standard : PAL
Color space : YUV
Chroma subsampling : 4:2:0
Bit depth : 8 bits
Scan type : Interlaced
Scan order : Top Field First
Compression mode : Lossy
Bits/(Pixel*Frame) : 0.603
Time code of first frame : 00:00:00:00
Time code source : Group of pictures header
Stream size : 894 MiB (87%)
Audio
ID : 189 (0xBD)-160 (0xA0)
Format : PCM
Format settings : Big / Signed
Format settings, Endianness : Big
Format settings, Sign : Signed
Muxing mode : DVD-Video
Duration : 20 min 1 s
Bit rate mode : Constant
Bit rate : 768 kb/s
Channel(s) : 1 channel
Channel positions : Front: C
Sampling rate : 48.0 kHz
Bit depth : 16 bits
Stream size : 110 MiB (11%)
Menu

Скриншоты

Fullscreen VS Widescreen

If your ratio falls below 0.3, you will not be able to download Torrents! More about the rating.

[erzsebet.pl].t576.torrent
Torrent: Registered   [ 2017-12-02 16:56 ]

Download .torrent

Download

23 KB

Status: checked
Completed: 16 times
Size: 4.37 GB
terms.php

#1

02-Dec-2017 16:54

[Profile]  [PM] 
Display posts:    

You cannot post new topics in this forum
You cannot reply to topics in this forum
You cannot edit your posts in this forum
You cannot delete your posts in this forum
You cannot vote in polls in this forum
You cannot attach files in this forum
You can download files in this forum
User agreement
For copyright holders
Advertise on this site

Скачайте на халяву через торрент на трекере erzsebet.pl

!ATTENTION!
The site does not give electronic versions of products, and is engaged only in a collecting and cataloguing of the references sent and published at a forum by our readers. If you are the legal owner of any submitted material and do not wish that the reference to it was in our catalogue, contact us and we shall immediately remove her. Files for an exchange on tracker are given by users of a site, and the administration does not bear the responsibility for their maintenance. The request to not fill in the files protected by copyrights, and also files of the illegal maintenance!