Приговорённый / Помеченный смертью / Отмеченный смертью / Нико 3 / Marked for Death (Дуайт Х. Литтл / Dwight H.Little) [1990, США, боевик, триллер, драма, криминал, VHSRip > DVD] [Fullscreen] AVO (Михалёв)

DL-List and Torrent activity
Size:  4.36 GB   |    Registered:  2 years 9 months   |    Completed:  16 times
Seeders:  5   Leechers:  1   Show peers in full details
 
   
 
 

erzsebet.org ®

Longevity:
2 years 9 months
Posts:
47596

[Quote] 

Приговорённый / Marked for Death [Fullscreen]- Страна: США
Жанр: боевик, триллер, драма, криминал
Год выпуска: 1990
Продолжительность: 01:33:22-Перевод: Авторский (одноголосый закадровый) - Алексей Михалёв
Субтитры: нет-Режиссер: Дуайт Х. Литтл / Dwight H.Little
В ролях: Стивен Сигал, Бейзил Уоллес, Кит Дэвид, Том Райт, Джоанна Пакула, Элизабет Грэйсен, Бетти Форд, Даниэль Харрис, Эл Израэл, Арлен Дин Снайдер- | Релиз: -Описание: После смерти напарника Джон Хэтчер, специальный агент отдела по борьбе с наркотиками, решает подать в отставку. Переехав к своей сестре в Чикаго, Хэтчер намеревается вести тихое и размеренное существование. Но этому не суждено было сбыться.
На пути у бывшего полицейского встает ямайская наркомафия во главе со своим жутким главарем по прозвищу Зомби. Хэтчер оказывается втянутым в кровавые разборки.-Доп. информация: Личная оцифровка VHS.
Внимание! Здесь другой перевод Алексея Михалёва!-Семпл: http://sendfile.su/1380196-Тип релиза: VHSRip
Контейнер: DVD-Video (DVD-5)
Видео: 720x576 (4:3) @ 768x576, 25.000 fps, MPEG-2 Video, ~5800 Kbps, 0.559 bits/pixel
Аудио: Русский, 48.0 KHz, PCM, 1 ch, 768 Kbps

DVDInfo

Title: Marked for Death 1990 [Fullscreen] VHS Mihalev
Size: 4.36 Gb ( 4 574 546,00 KBytes ) - DVD-5
Enabled regions: 1, 2, 3, 4, 5, 6, 7, 8
VTS_01 :
Play Length: 01:33:22
Video: PAL 4:3 (720x576) VBR
Audio:
Russian (LinearPCM, 1 ch)

MediaInfo

General
Complete name : \Marked for Death 1990 [Fullscreen] VHS Mihalev\VIDEO_TS\VTS_01_1.VOB
Format : MPEG-PS
File size : 1 024 MiB
Duration : 21 min 24 s
Overall bit rate mode : Variable
Overall bit rate : 6 688 kb/s
Video
ID : 224 (0xE0)
Format : MPEG Video
Format version : Version 2
Format profile : [email protected]
Format settings : CustomMatrix / BVOP
Format settings, BVOP : Yes
Format settings, Matrix : Custom
Format settings, GOP : Variable
Format settings, picture structure : Frame
Duration : 21 min 24 s
Bit rate mode : Variable
Bit rate : 5 800 kb/s
Width : 720 pixels
Height : 576 pixels
Display aspect ratio : 4:3
Frame rate : 25.000 FPS
Standard : PAL
Color space : YUV
Chroma subsampling : 4:2:0
Bit depth : 8 bits
Scan type : Interlaced
Scan order : Top Field First
Compression mode : Lossy
Bits/(Pixel*Frame) : 0.559
Time code of first frame : 00:00:00:00
Time code source : Group of pictures header
Stream size : 886 MiB (87%)
Audio
ID : 189 (0xBD)-160 (0xA0)
Format : PCM
Format settings : Big / Signed
Format settings, Endianness : Big
Format settings, Sign : Signed
Muxing mode : DVD-Video
Duration : 21 min 23 s
Bit rate mode : Constant
Bit rate : 768 kb/s
Channel(s) : 1 channel
Channel positions : Front: C
Sampling rate : 48.0 kHz
Bit depth : 16 bits
Stream size : 118 MiB (11%)
Menu

Скриншоты

Fullscreen VS Widescreen

If your ratio falls below 0.3, you will not be able to download Torrents! More about the rating.

[erzsebet.pl].t577.torrent
Torrent: Registered   [ 2017-12-02 16:56 ]

Download .torrent

Download

23 KB

Status: checked
Completed: 16 times
Size: 4.36 GB
terms.php

#1

02-Dec-2017 16:54

[Profile]  [PM] 
Display posts:    

You cannot post new topics in this forum
You cannot reply to topics in this forum
You cannot edit your posts in this forum
You cannot delete your posts in this forum
You cannot vote in polls in this forum
You cannot attach files in this forum
You can download files in this forum
User agreement
For copyright holders
Advertise on this site

Скачайте на халяву через торрент на трекере erzsebet.pl

!ATTENTION!
The site does not give electronic versions of products, and is engaged only in a collecting and cataloguing of the references sent and published at a forum by our readers. If you are the legal owner of any submitted material and do not wish that the reference to it was in our catalogue, contact us and we shall immediately remove her. Files for an exchange on tracker are given by users of a site, and the administration does not bear the responsibility for their maintenance. The request to not fill in the files protected by copyrights, and also files of the illegal maintenance!