Омен 3: Последний конфликт / Omen III:The Final Conflict (Грэхэм Бэйкер / Graham Baker) [1981, США, Великобритания, ужасы, триллер, BDRip] AVO (Гаврилов)

DL-List and Torrent activity
Size:  1.46 GB   |    Registered:  2 years 9 months   |    Completed:  16 times
Seeders:  5  
 
   
 
 

erzsebet.org ®

Longevity:
2 years 9 months
Posts:
47596

[Quote] 

Омен 3: Последний конфликт / Omen III:The Final Conflict
Страна: США
Жанр: ужасы, триллер
Год выпуска: 1981
Продолжительность: 01:48:20
Перевод: Авторский (одноголосый закадровый) Андрей Гаврилов
Субтитры: нет
Оригинальная аудиодорожка: нет
Режиссер: Грэхэм Бэйкер / Graham Baker
В ролях: Сэм Нилл, Россано Брацци, Дон Гордон, Лиза Хэрро, Барнеби Холм, Мейсон Эдамс, Роберт Арден, Леуин Уиллогби, Марк Бойл, Милош Кирек
Описание: Дэмиену Торну теперь 32. И его главное предназначение в качестве Антихриста — предотвращение Второго Пришествия. Прежде всего, Дэмиен должен не допустить рождения накануне XXI века нового Христа, которому предназначено положить конец сатанинским силам и объявить Страшный Суд. Стремясь к власти над всем миром он предан только себе и своему родному отцу — Сатане. Чтобы достичь своей цели, он убивает всех на своем пути — будь то друг, враг, верный слуга или любовница.Темным силам противостоит лишь поклявшийся уничтожить дьявольское отродье старый монах с семью святыми кинжалами, выкованными специально для этого дела. Но хватит ли у него сил для осуществления своего плана или умрет как все, и мир повергнется в пучину хаоса??
Доп. информация:
Релиз от
Рип от Menen - http://erzsebet.org/forum/viewtopic.php?t=3060472
Сэмпл
Качество видео: BDRip
Формат видео: AVI
Видео: XviD; 720x304 (2,35:1); 1535 Kbps; 23,976 fps; 0,292 bit/pixel
Аудио: AC3; 48 kHz, 384 Kbps; CBR; 6 ch

MediaInfo

Общее
Полное имя : Omen.III.The.Final.Conflict.1981.BDRip.Gavrilov.lumpeN.avi
Формат : AVI
Формат/Информация : Audio Video Interleave
Размер файла : 1,46 Гбайт
Продолжительность : 1 ч. 48 м.
Общий поток : 1928 Кбит/сек
Название фильма : lumpeN
Программа кодирования : VirtualDubMod 1.5.10.2 (build 2540/release)
Библиотека кодирования : VirtualDubMod build 2540/release
Видео
Идентификатор : 0
Формат : MPEG-4 Visual
Профиль формата : Advanced [email protected]
Настройки формата : BVOP1 / Custom Matrix
Параметр BVOP формата : 1
Параметр QPel формата : Нет
Параметр GMC формата : Без точки перехода
Параметр матрицы формата : Выборочная
Идентификатор кодека : XVID
Идентификатор кодека/Подсказка : XviD
Продолжительность : 1 ч. 48 м.
Битрейт : 1535 Кбит/сек
Ширина : 720 пикселей
Высота : 304 пикселя
Соотношение сторон : 2,35:1
Частота кадров : 23,976 (24000/1001) кадра/сек
Цветовое пространство : YUV
Субдискретизация насыщенности : 4:2:0
Битовая глубина : 8 бит
Тип развёртки : Прогрессивная
Метод сжатия : С потерями
Бит/(Пиксели*Кадры) : 0.292
Размер потока : 1,16 Гбайт (80%)
Библиотека кодирования : XviD 1.2.1 (UTC 2008-12-04)
Аудио
Идентификатор : 1
Формат : AC-3
Формат/Информация : Audio Coding 3
Идентификатор кодека : 2000
Продолжительность : 1 ч. 48 м.
Вид битрейта : Постоянный
Битрейт : 384 Кбит/сек
Каналы : 6 каналов
Расположение каналов : Front: L C R, Side: L R, LFE
Частота : 48,0 КГц
Частота кадров : 31,250 кадров/сек (1536 SPF)
Битовая глубина : 16 бит
Метод сжатия : С потерями
Размер потока : 298 Мбайт (20%)
Выравнивание : Разделение по промежуткам
Продолжительность промежутка : 42 мс. (1,00 видеокадр)
Время предзагрузки промежутка : 500 мс.
Заголовок : Gavrilov
ServiceKind/String : Complete Main

Скриншоты

If your ratio falls below 0.3, you will not be able to download Torrents! More about the rating.

[erzsebet.pl].t579.torrent
Torrent: Registered   [ 2017-12-02 16:56 ]

Download .torrent

Download

15 KB

Status: checked
Completed: 16 times
Size: 1.46 GB
terms.php

#1

02-Dec-2017 16:54

[Profile]  [PM] 
Display posts:    

You cannot post new topics in this forum
You cannot reply to topics in this forum
You cannot edit your posts in this forum
You cannot delete your posts in this forum
You cannot vote in polls in this forum
You cannot attach files in this forum
You can download files in this forum
User agreement
For copyright holders
Advertise on this site

Скачайте на халяву через торрент на трекере erzsebet.pl

!ATTENTION!
The site does not give electronic versions of products, and is engaged only in a collecting and cataloguing of the references sent and published at a forum by our readers. If you are the legal owner of any submitted material and do not wish that the reference to it was in our catalogue, contact us and we shall immediately remove her. Files for an exchange on tracker are given by users of a site, and the administration does not bear the responsibility for their maintenance. The request to not fill in the files protected by copyrights, and also files of the illegal maintenance!